Sting & Shaggy - 44/876 (Bonus DVD) [2018, Pop-Rock, Reggae, DVD5 (Custom)]

Ответить на тему
Статистика раздачи [Обновить пиров]
Размер:  1.47 GB   |    Зарегистрирован:  1 месяц 7 дней   |    Скачан:  0 раз

Полного источника не было: Никогда

 
   
 
 
 
Автор Сообщение

torrentc.info

Создавать темы 11-Авг-2018 23:03

[Цитировать]

Sting & Shaggy - 44/876
Страна: UK/Jamaica
Жанр: Pop-Rock, Reggae
Продолжительность: 00:21:43
Год выхода: 2018
Треклист:
1. Don’t Make Me Wait (Live at Shaggy & Friends, Kingston Jamaica)
2. 44/876 Interview
3. Don’t Make Me Wait (Music Video)
Доп. информация: Источник: Torrentcом послужил неправильно сграббленный DVD5. (Спасибо за Источник: Torrentc [url=profile.php?mode=viewprofile&u=15827468]pishin[/url]).
Мы с профильным модератором специально выждали почти месяц в надежде, что будет правильная копия.
Большое спасибо [url=profile.php?mode=viewprofile&u=1069088]CHKA1961[/url], за помощь по созданию данного релиза.
Между прочим, оригинальный авторинг DVD был выполнен с незначительным нарушением жёстких нормативов формата.
Меню статическое, озвученное, созданное на основе исходного.
Полученный результат проверен на работоспособность на софтовом Media Player Classic Home Cinema, записан на болванку с помощью ImgBurn и вновь проверен уже на бытовом плеере.--

Программы, использованные при создании этого релиза

Демуксинг
MPEG Video Wizard DVD
Обработка видео
Не производилась
Обработка аудио
Не производилась
Создание меню, Авторинг и проверка
SnagIt
Muxman
DVD-lab PRO
DvdReMakePro
--Разбивка на главы по трекам: есть
Качество : DVD5
Формат файла: DVD video
Видео кодек: MPEG2
Аудио кодек: PCM
Видео: NTSC 16:9 (720x480) VBR Auto Letterboxed, 7844-7846(8200) Kbps, 23.976 fps
Видео2: NTSC 16:9 (720x480) VBR Auto Letterboxed, 7872(8200) Kbps, 29.970 fps (Live)
Аудио: English (LinearPCM, 2 ch), 1536 Kbps, 48.0 KHz

DVDinfo+MI

Title: Sting & Shaggy - 44-876 (Bonus DVD)Size: 1.47 Gb ( 1 540 732,00 KBytes ) - DVD-5Enabled regions: 1, 2, 3, 4, 5, 6, 7, 8
VTS_01 : Play Length: 00:13:09+00:04:03 Video: NTSC 16:9 (720x480) VBR, Auto Letterboxed Audio: English (LinearPCM, 2 ch)
VTS_02 : Play Length: 00:04:31 Video: NTSC 16:9 (720x480) VBR, Auto Letterboxed Audio: English (LinearPCM, 2 ch)
* Menus Information *
VIDEO_TS MenuVideo: NTSC 16:9 (720x480) VBR Auto LetterboxedAudio: Not specified (LinearPCM, 2 ch)English Language Unit : Title Menu
VTS_01 MenuVideo: NTSC 16:9 (720x480) VBR Auto LetterboxedEnglish Language Unit : Root Menu
VTS_02 MenuVideo: NTSC 4:3 (720x480) VBR Auto Pan&Scan, Auto LetterboxedEnglish Language Unit : Root Menu-GeneralComplete name : J:\Music Video\DVD\Sting & Shaggy - 44-876 (Bonus DVD)\VIDEO_TS\VIDEO_TS.BUPFormat : DVD VideoFormat profile : MenuFile size : 12.0 KiBOverall bit rate mode : VariableFileExtension_Invalid : ifo
VideoID : 224 (0xE0)Format : MPEG VideoFormat version : Version 2Bit rate mode : VariableWidth : 720 pixelsHeight : 480 pixelsDisplay aspect ratio : 16:9Frame rate : 29.970 (29970/1000) FPSStandard : NTSCCompression mode : Lossy
AudioFormat : PCMChannel(s) : 2 channelsSampling rate : 48.0 kHz
TextFormat : RLEFormat/Info : Run-length encodingBit depth : 2 bits
GeneralComplete name : J:\Music Video\DVD\Sting & Shaggy - 44-876 (Bonus DVD)\VIDEO_TS\VIDEO_TS.IFOFormat : DVD VideoFormat profile : MenuFile size : 12.0 KiBOverall bit rate mode : Variable
VideoID : 224 (0xE0)Format : MPEG VideoFormat version : Version 2Bit rate mode : VariableWidth : 720 pixelsHeight : 480 pixelsDisplay aspect ratio : 16:9Frame rate : 29.970 (29970/1000) FPSStandard : NTSCCompression mode : Lossy
AudioFormat : PCMChannel(s) : 2 channelsSampling rate : 48.0 kHz
TextFormat : RLEFormat/Info : Run-length encodingBit depth : 2 bits
GeneralComplete name : J:\Music Video\DVD\Sting & Shaggy - 44-876 (Bonus DVD)\VIDEO_TS\VIDEO_TS.VOBFormat : MPEG-PSFile size : 18.4 MiBDuration : 21 s 796 msOverall bit rate mode : VariableOverall bit rate : 7 101 kb/s
VideoID : 224 (0xE0)Format : MPEG VideoFormat version : Version 2Format profile : Main@MainFormat settings, BVOP : YesFormat settings, Matrix : CustomFormat settings, GOP : M=3, N=15Format settings, picture structure : FrameDuration : 80 msBit rate mode : VariableBit rate : 5 423 kb/sMaximum bit rate : 7 816 kb/sWidth : 720 pixelsHeight : 480 pixelsDisplay aspect ratio : 16:9Frame rate : 29.970 (30000/1001) FPSStandard : NTSCColor space : YUVChroma subsampling : 4:2:0Bit depth : 8 bitsScan type : InterlacedScan order : Top Field FirstCompression mode : LossyBits/(Pixel*Frame) : 0.524Time code of first frame : 01:01:00:00Time code source : Group of pictures headerGOP, Open/Closed : OpenGOP, Open/Closed of first frame : ClosedStream size : 44.2 KiB (0%)
AudioID : 189 (0xBD)-160 (0xA0)Format : PCMFormat settings, Endianness : BigFormat settings, Sign : SignedMuxing mode : DVD-VideoDuration : 21 s 796 msBit rate mode : ConstantBit rate : 1 536 kb/sChannel(s) : 2 channelsSampling rate : 48.0 kHzBit depth : 16 bitsStream size : 3.99 MiB (22%)
TextID : 189 (0xBD)-32 (0x20)Format : RLEFormat/Info : Run-length encodingMuxing mode : DVD-Video
Menu
GeneralComplete name : J:\Music Video\DVD\Sting & Shaggy - 44-876 (Bonus DVD)\VIDEO_TS\VTS_01_0.BUPFormat : DVD VideoFormat profile : ProgramFile size : 28.0 KiBDuration : 13 min 9 sOverall bit rate mode : VariableOverall bit rate : 291 b/sFileExtension_Invalid : ifo
VideoID : 224 (0xE0)Format : MPEG VideoFormat version : Version 2Duration : 13 min 9 sBit rate mode : VariableWidth : 720 pixelsHeight : 480 pixelsDisplay aspect ratio : 16:9Frame rate : 29.970 (29970/1000) FPSStandard : NTSCCompression mode : Lossy
AudioID : 0 (0x0)Format : PCMDuration : 13 min 9 sChannel(s) : 2 channelsSampling rate : 48.0 kHzLanguage : English
Menu #1Duration : 13 min 9 s00:00:00.000 : Chapter 1List (Audio) : 0
Menu #2Duration : 4 min 3 s00:00:00.000 : Chapter 1List (Audio) : 0
Menu #3
GeneralComplete name : J:\Music Video\DVD\Sting & Shaggy - 44-876 (Bonus DVD)\VIDEO_TS\VTS_01_0.IFOFormat : DVD VideoFormat profile : ProgramFile size : 28.0 KiBDuration : 13 min 9 sOverall bit rate mode : VariableOverall bit rate : 291 b/s
VideoID : 224 (0xE0)Format : MPEG VideoFormat version : Version 2Duration : 13 min 9 sBit rate mode : VariableWidth : 720 pixelsHeight : 480 pixelsDisplay aspect ratio : 16:9Frame rate : 29.970 (29970/1000) FPSStandard : NTSCCompression mode : Lossy
AudioID : 0 (0x0)Format : PCMDuration : 13 min 9 sChannel(s) : 2 channelsSampling rate : 48.0 kHzLanguage : English
Menu #1Duration : 13 min 9 s00:00:00.000 : Chapter 1List (Audio) : 0
Menu #2Duration : 4 min 3 s00:00:00.000 : Chapter 1List (Audio) : 0
Menu #3
GeneralComplete name : J:\Music Video\DVD\Sting & Shaggy - 44-876 (Bonus DVD)\VIDEO_TS\VTS_01_0.VOBFormat : MPEG-PSFile size : 202 KiBDuration : 33 msOverall bit rate mode : VariableOverall bit rate : 50.1 Mb/s
VideoID : 224 (0xE0)Format : MPEG VideoFormat version : Version 2Format profile : Main@MainFormat settings, BVOP : NoFormat settings, Matrix : DefaultDuration : 33 msBit rate mode : VariableMaximum bit rate : 9 000 kb/sWidth : 720 pixelsHeight : 480 pixelsDisplay aspect ratio : 16:9Frame rate : 29.970 (30000/1001) FPSStandard : NTSCColor space : YUVChroma subsampling : 4:2:0Bit depth : 8 bitsScan type : ProgressiveScan order : Top Field FirstCompression mode : LossyTime code of first frame : 00:00:00;00Time code source : Group of pictures headerColor primaries : BT.601 NTSCTransfer characteristics : BT.601Matrix coefficients : BT.601
Text #1ID : 189 (0xBD)-32 (0x20)Format : RLEFormat/Info : Run-length encodingMuxing mode : DVD-Video
Text #2ID : 189 (0xBD)-34 (0x22)Format : RLEFormat/Info : Run-length encodingMuxing mode : DVD-Video
Menu
GeneralComplete name : J:\Music Video\DVD\Sting & Shaggy - 44-876 (Bonus DVD)\VIDEO_TS\VTS_01_1.VOBFormat : MPEG-PSFile size : 1 024 MiBDuration : 1 min 48 sOverall bit rate mode : VariableOverall bit rate : 79.1 Mb/sWriting library : (c) 1998-2009 Womble Multimedia, Inc. / MPEG Video Wizard (03/2009) / Jun 24 2009
VideoID : 224 (0xE0)Format : MPEG VideoFormat version : Version 2Format profile : Main@MainFormat settings, BVOP : YesFormat settings, Matrix : CustomFormat settings, GOP : VariableDuration : 1 min 48 sBit rate mode : VariableBit rate : 76.0 Mb/sMaximum bit rate : 8 200 kb/sWidth : 720 pixelsHeight : 480 pixelsDisplay aspect ratio : 16:9Frame rate : 23.976 (24000/1001) FPSColor space : YUVChroma subsampling : 4:2:0Bit depth : 8 bitsScan type : ProgressiveScan order : 2:3 PulldownCompression mode : LossyBits/(Pixel*Frame) : 9.174Time code of first frame : 00:00:00:00Time code source : Group of pictures headerStream size : 984 MiB (96%)Writing library : (c) 1998-2009 Womble Multimedia, Inc. / MPEG Video Wizard (03/2009) / Jun 24 2009
AudioID : 189 (0xBD)-160 (0xA0)Format : PCMFormat settings, Endianness : BigFormat settings, Sign : SignedMuxing mode : DVD-VideoDuration : 1 min 48 sBit rate mode : ConstantBit rate : 1 536 kb/sChannel(s) : 2 channelsSampling rate : 48.0 kHzBit depth : 16 bitsStream size : 19.8 MiB (2%)
Menu
GeneralComplete name : J:\Music Video\DVD\Sting & Shaggy - 44-876 (Bonus DVD)\VIDEO_TS\VTS_01_2.VOBFormat : MPEG-PSFile size : 152 MiBDuration : 2 min 15 sOverall bit rate mode : VariableOverall bit rate : 9 410 kb/s
VideoID : 224 (0xE0)Format : MPEG VideoFormat version : Version 2Format profile : Main@MainFormat settings, BVOP : YesFormat settings, Matrix : CustomFormat settings, GOP : VariableDuration : 2 min 15 sBit rate mode : VariableBit rate : 7 687 kb/sMaximum bit rate : 8 200 kb/sWidth : 720 pixelsHeight : 480 pixelsDisplay aspect ratio : 16:9Frame rate : 23.976 (24000/1001) FPSColor space : YUVChroma subsampling : 4:2:0Bit depth : 8 bitsScan type : ProgressiveScan order : 2:3 PulldownCompression mode : LossyBits/(Pixel*Frame) : 0.928Time code of first frame : 00:01:48:24Time code source : Group of pictures headerStream size : 124 MiB (81%)
AudioID : 189 (0xBD)-160 (0xA0)Format : PCMFormat settings, Endianness : BigFormat settings, Sign : SignedMuxing mode : DVD-VideoDuration : 2 min 15 sBit rate mode : ConstantBit rate : 1 536 kb/sChannel(s) : 2 channelsSampling rate : 48.0 kHzBit depth : 16 bitsDelay relative to video : -606 msStream size : 24.8 MiB (16%)
Menu
GeneralComplete name : J:\Music Video\DVD\Sting & Shaggy - 44-876 (Bonus DVD)\VIDEO_TS\VTS_02_0.BUPFormat : DVD VideoFormat profile : ProgramFile size : 16.0 KiBDuration : 4 min 31 sOverall bit rate mode : VariableOverall bit rate : 483 b/sFileExtension_Invalid : ifo
VideoID : 224 (0xE0)Format : MPEG VideoFormat version : Version 2Duration : 4 min 31 sBit rate mode : VariableWidth : 720 pixelsHeight : 480 pixelsDisplay aspect ratio : 16:9Frame rate : 29.970 (29970/1000) FPSStandard : NTSCCompression mode : Lossy
AudioID : 0 (0x0)Format : PCMDuration : 4 min 31 sChannel(s) : 2 channelsSampling rate : 48.0 kHzLanguage : English
MenuDuration : 4 min 31 s00:00:00.000 : Chapter 1List (Audio) : 0
GeneralComplete name : J:\Music Video\DVD\Sting & Shaggy - 44-876 (Bonus DVD)\VIDEO_TS\VTS_02_0.IFOFormat : DVD VideoFormat profile : ProgramFile size : 16.0 KiBDuration : 4 min 31 sOverall bit rate mode : VariableOverall bit rate : 483 b/s
VideoID : 224 (0xE0)Format : MPEG VideoFormat version : Version 2Duration : 4 min 31 sBit rate mode : VariableWidth : 720 pixelsHeight : 480 pixelsDisplay aspect ratio : 16:9Frame rate : 29.970 (29970/1000) FPSStandard : NTSCCompression mode : Lossy
AudioID : 0 (0x0)Format : PCMDuration : 4 min 31 sChannel(s) : 2 channelsSampling rate : 48.0 kHzLanguage : English
MenuDuration : 4 min 31 s00:00:00.000 : Chapter 1List (Audio) : 0
GeneralComplete name : J:\Music Video\DVD\Sting & Shaggy - 44-876 (Bonus DVD)\VIDEO_TS\VTS_02_1.VOBFormat : MPEG-PSFile size : 310 MiBDuration : 4 min 31 sOverall bit rate mode : VariableOverall bit rate : 9 575 kb/sWriting library : (c) 1998-2009 Womble Multimedia, Inc. / MPEG Video Wizard (03/2009) / Jun 24 2009
VideoID : 224 (0xE0)Format : MPEG VideoFormat version : Version 2Format profile : Main@MainFormat settings, BVOP : YesFormat settings, Matrix : CustomFormat settings, GOP : VariableFormat settings, picture structure : FrameDuration : 4 min 31 sBit rate mode : VariableBit rate : 7 849 kb/sMaximum bit rate : 8 200 kb/sWidth : 720 pixelsHeight : 480 pixelsDisplay aspect ratio : 16:9Frame rate : 29.970 (30000/1001) FPSStandard : NTSCColor space : YUVChroma subsampling : 4:2:0Bit depth : 8 bitsScan type : InterlacedScan order : Top Field FirstCompression mode : LossyBits/(Pixel*Frame) : 0.758Time code of first frame : 00:00:00:00Time code source : Group of pictures headerGOP, Open/Closed : OpenGOP, Open/Closed of first frame : ClosedStream size : 254 MiB (82%)Writing library : (c) 1998-2009 Womble Multimedia, Inc. / MPEG Video Wizard (03/2009) / Jun 24 2009
AudioID : 189 (0xBD)-160 (0xA0)Format : PCMFormat settings, Endianness : BigFormat settings, Sign : SignedMuxing mode : DVD-VideoDuration : 4 min 31 sBit rate mode : ConstantBit rate : 1 536 kb/sChannel(s) : 2 channelsSampling rate : 48.0 kHzBit depth : 16 bitsStream size : 49.7 MiB (16%)
Menu

Скриншоты меню



[torrentc.info]_t_5596560.torrent
Торрент: Зарегистрирован ·  [ 2018-08-11 23:02 ] ·  b586d2bd453343f1e776fa56aded2e1d4cb56e84

16 KB

Статус: проверено
Скачан: 0 раз
Размер: 1.47 GB
Оценка: 
(Голосов: 0)
Сказали спасибо: 0  Спасибо
Похожие темы
[Профиль]    [ЛС]
Показать сообщения:    
Ответить на тему

Текущее время: Сегодня 12:53

Часовой пояс: GMT + 7



Вы не можете начинать темы
Вы не можете отвечать на сообщения
Вы не можете редактировать свои сообщения
Вы не можете удалять свои сообщения
Вы не можете голосовать в опросах
Вы не можете прикреплять файлы к сообщениям
Вы можете скачивать файлы