(Score) Лекарство от здоровья / A Cure For Wellness (by Benjamin Wallfisch) - 2017, FLAC (tracks+.cue), lossless

Ответить на тему
Статистика раздачи [Обновить пиров]
Размер:  247 MB   |    Зарегистрирован:  1 месяц 9 дней   |    Скачан:  0 раз

Полного источника не было: Никогда

 
   
 
 
 
Автор Сообщение

torrentc.info

Создавать темы 09-Авг-2018 20:15

[Цитировать]

Лекарство от здоровья / A Cure For Wellness- --Жанр: Score || Композитор: Benjamin Wallfisch || Год выхода диска: 2017 || Страна-производитель диска: USA || Аудио кодек: FLAC (*.flac) || Тип рипа: tracks+.cue || Битрейт аудио: lossless
|| Продолжительность: 00:50:02 || Источник: Redacted.ch || Наличие сканов в содержимом раздачи: нет
-Треклист:
01. Hannah and Volmer (4:35)
02. Nobody Ever Leaves (1:49)
03. Bicycle (2:00)
04. The Rite (3:42)
05. Feuerwalzer (3:44)
06. Magnificent, Isn't It (2:11)
07. Actually I'm Feeling Much Better (2:00)
08. Clearly He's Lost His Mind (2:50)
09. Our Thoughts Exactly (1:04)
10. Volmer Institut (3:03)
11. Terrible Darkness (3:19)
12. Lipstick (4:22)
13. Waiting (0:56)
14. Zutritt Verboten (3:39)
15. There's Nothing Wrong with You People (1:26)
16. Lockhart's Letter (2:12)
17. Volmer's Lab (3:32)
18. I Wanna Be Sedated (3:38)

Лог создания рипа

Exact Audio Copy V1.0 beta 4 from 7. December 2014
EAC extraction logfile from 12. March 2017, 7:33
Benjamin Wallfisch / A Cure For Wellness (Music From the Motion Picture)
Used drive : ASUS SDR-08B1-U A Adapter: 1 ID: 0
Read mode : SecureUtilize accurate stream : YesDefeat audio cache : YesMake use of C2 pointers : No
Read offset correction : 6Overread into Lead-In and Lead-Out : NoFill up missing offset samples with silence : YesDelete leading and trailing silent blocks : NoNull samples used in CRC calculations : YesUsed interface : Native Win32 interface for Win NT & 2000Gap handling : Appended to previous track
Used output format : User Defined EncoderSelected bitrate : 1024 kBit/sQuality : HighAdd ID3 tag : NoCommand line compressor : D:\Program Files\Exact Audio Copy\FLAC\FLAC.EXEAdditional command line options : -6 -V -T "ARTIST=%artist%" -T "TITLE=%title%" -T "ALBUM=%albumtitle%" -T "DATE=%year%" -T "TRACKNUMBER=%tracknr%" -T "GENRE=%genre%" -T "COMMENT=%comment%" -T "BAND=%albuminterpret%" -T "ALBUMARTIST=%albuminterpret%" -T "COMPOSER=%composer%" %haslyrics%--tag-from-file=LYRICS="%lyricsfile%"%haslyrics% -T "DISCNUMBER=%cdnumber%" -T "TOTALDISCS=%totalcds%" -T "TOTALTRACKS=%numtracks%" %hascover%--picture="%coverfile%"%hascover% %source% -o %dest%
TOC of the extracted CD
Track | Start | Length | Start sector | End sector --------------------------------------------------------- 1 | 0:00.00 | 4:34.56 | 0 | 20605 2 | 4:34.56 | 1:49.18 | 20606 | 28798 3 | 6:23.74 | 1:59.64 | 28799 | 37787 4 | 8:23.63 | 3:42.19 | 37788 | 54456 5 | 12:06.07 | 3:44.16 | 54457 | 71272 6 | 15:50.23 | 2:11.15 | 71273 | 81112 7 | 18:01.38 | 1:59.64 | 81113 | 90101 8 | 20:01.27 | 2:49.54 | 90102 | 102830 9 | 22:51.06 | 1:03.72 | 102831 | 107627 10 | 23:55.03 | 3:02.33 | 107628 | 121310 11 | 26:57.36 | 3:18.54 | 121311 | 136214 12 | 30:16.15 | 4:21.54 | 136215 | 155843 13 | 34:37.69 | 0:55.73 | 155844 | 160041 14 | 35:33.67 | 3:38.56 | 160042 | 176447 15 | 39:12.48 | 1:25.71 | 176448 | 182893 16 | 40:38.44 | 2:12.14 | 182894 | 192807 17 | 42:50.58 | 3:32.23 | 192808 | 208730 18 | 46:23.06 | 3:38.05 | 208731 | 225085
Track 1
Filename E:\Soundtrack\Benjamin Wallfisch - A Cure For Wellness (Music From the Motion Picture)\01 - Hannah and Volmer.wav
Pre-gap length 0:00:02.00
Peak level 99.1 % Extraction speed 1.1 X Track quality 100.0 % Test CRC 92A81738 Copy CRC 92A81738 Track not present in AccurateRip database Copy OK
Track 2
Filename E:\Soundtrack\Benjamin Wallfisch - A Cure For Wellness (Music From the Motion Picture)\02 - Nobody Ever Leaves.wav
Peak level 99.8 % Extraction speed 0.8 X Track quality 99.9 % Test CRC A3FFFAAC Copy CRC A3FFFAAC Track not present in AccurateRip database Copy OK
Track 3
Filename E:\Soundtrack\Benjamin Wallfisch - A Cure For Wellness (Music From the Motion Picture)\03 - Bicycle.wav
Peak level 99.1 % Extraction speed 0.9 X Track quality 99.9 % Test CRC 536853E4 Copy CRC 536853E4 Track not present in AccurateRip database Copy OK
Track 4
Filename E:\Soundtrack\Benjamin Wallfisch - A Cure For Wellness (Music From the Motion Picture)\04 - The Rite.wav
Peak level 100.0 % Extraction speed 1.3 X Track quality 100.0 % Test CRC 2F80BF2B Copy CRC 2F80BF2B Track not present in AccurateRip database Copy OK
Track 5
Filename E:\Soundtrack\Benjamin Wallfisch - A Cure For Wellness (Music From the Motion Picture)\05 - Feuerwalzer.wav
Peak level 100.0 % Extraction speed 1.5 X Track quality 100.0 % Test CRC B1D0E738 Copy CRC B1D0E738 Track not present in AccurateRip database Copy OK
Track 6
Filename E:\Soundtrack\Benjamin Wallfisch - A Cure For Wellness (Music From the Motion Picture)\06 - Magnificent, Isn't It.wav
Peak level 99.0 % Extraction speed 1.4 X Track quality 100.0 % Test CRC D39742E2 Copy CRC D39742E2 Track not present in AccurateRip database Copy OK
Track 7
Filename E:\Soundtrack\Benjamin Wallfisch - A Cure For Wellness (Music From the Motion Picture)\07 - Actually I'm Feeling Much Better.wav
Peak level 100.0 % Extraction speed 1.1 X Track quality 99.9 % Test CRC 518DC1A8 Copy CRC 518DC1A8 Track not present in AccurateRip database Copy OK
Track 8
Filename E:\Soundtrack\Benjamin Wallfisch - A Cure For Wellness (Music From the Motion Picture)\08 - Clearly He's Lost His Mind.wav
Peak level 99.8 % Extraction speed 1.6 X Track quality 100.0 % Test CRC 7AE63174 Copy CRC 7AE63174 Track not present in AccurateRip database Copy OK
Track 9
Filename E:\Soundtrack\Benjamin Wallfisch - A Cure For Wellness (Music From the Motion Picture)\09 - Our Thoughts Exactly.wav
Peak level 99.0 % Extraction speed 1.2 X Track quality 100.0 % Test CRC 8B979E69 Copy CRC 8B979E69 Track not present in AccurateRip database Copy OK
Track 10
Filename E:\Soundtrack\Benjamin Wallfisch - A Cure For Wellness (Music From the Motion Picture)\10 - Volmer Institut.wav
Peak level 100.0 % Extraction speed 1.7 X Track quality 100.0 % Test CRC 3D10D18B Copy CRC 3D10D18B Track not present in AccurateRip database Copy OK
Track 11
Filename E:\Soundtrack\Benjamin Wallfisch - A Cure For Wellness (Music From the Motion Picture)\11 - Terrible Darkness.wav
Peak level 99.5 % Extraction speed 1.8 X Track quality 100.0 % Test CRC 989D7E2C Copy CRC 989D7E2C Track not present in AccurateRip database Copy OK
Track 12
Filename E:\Soundtrack\Benjamin Wallfisch - A Cure For Wellness (Music From the Motion Picture)\12 - Lipstick.wav
Peak level 100.0 % Extraction speed 1.9 X Track quality 100.0 % Test CRC 27DF66A4 Copy CRC 27DF66A4 Track not present in AccurateRip database Copy OK
Track 13
Filename E:\Soundtrack\Benjamin Wallfisch - A Cure For Wellness (Music From the Motion Picture)\13 - Waiting.wav
Peak level 99.1 % Extraction speed 1.3 X Track quality 100.0 % Test CRC 0A179CFD Copy CRC 0A179CFD Track not present in AccurateRip database Copy OK
Track 14
Filename E:\Soundtrack\Benjamin Wallfisch - A Cure For Wellness (Music From the Motion Picture)\14 - Zutritt Verboten.wav
Peak level 100.0 % Extraction speed 2.0 X Track quality 100.0 % Test CRC 8DAF71DB Copy CRC 8DAF71DB Track not present in AccurateRip database Copy OK
Track 15
Filename E:\Soundtrack\Benjamin Wallfisch - A Cure For Wellness (Music From the Motion Picture)\15 - There's Nothing Wrong With You People.wav
Peak level 100.0 % Extraction speed 1.6 X Track quality 100.0 % Test CRC AE8FB04A Copy CRC AE8FB04A Track not present in AccurateRip database Copy OK
Track 16
Filename E:\Soundtrack\Benjamin Wallfisch - A Cure For Wellness (Music From the Motion Picture)\16 - Lockhart's Letter.wav
Peak level 99.7 % Extraction speed 1.9 X Track quality 100.0 % Test CRC B95BD7E5 Copy CRC B95BD7E5 Track not present in AccurateRip database Copy OK
Track 17
Filename E:\Soundtrack\Benjamin Wallfisch - A Cure For Wellness (Music From the Motion Picture)\17 - Volmer's Lab.wav
Peak level 75.3 % Extraction speed 2.1 X Track quality 100.0 % Test CRC 5942E0CB Copy CRC 5942E0CB Track not present in AccurateRip database Copy OK
Track 18
Filename E:\Soundtrack\Benjamin Wallfisch - A Cure For Wellness (Music From the Motion Picture)\18 - I Wanna Be Sedated.wav
Peak level 99.1 % Extraction speed 2.2 X Track quality 100.0 % Test CRC 172225AE Copy CRC 172225AE Track not present in AccurateRip database Copy OK
None of the tracks are present in the AccurateRip database
No errors occurred
End of status report
---- CUETools DB Plugin V2.1.4
[CTDB TOCID: 9rqVFjc8CTJqUAVWTina122HEcE-] foundSubmit result: 基础连接已经关闭: 服务器关闭了本应保持活动状态的连接。Track | CTDB Status 1 | (2/2) Accurately ripped 2 | (2/2) Accurately ripped 3 | (2/2) Accurately ripped 4 | (2/2) Accurately ripped 5 | (2/2) Accurately ripped 6 | (2/2) Accurately ripped 7 | (2/2) Accurately ripped 8 | (2/2) Accurately ripped 9 | (2/2) Accurately ripped 10 | (2/2) Accurately ripped 11 | (2/2) Accurately ripped 12 | (2/2) Accurately ripped 13 | (2/2) Accurately ripped 14 | (2/2) Accurately ripped 15 | (2/2) Accurately ripped 16 | (2/2) Accurately ripped 17 | (2/2) Accurately ripped 18 | (2/2) Accurately ripped
==== Log checksum 79AC2A83D86ACFE0D2332005C4BF0559B01C2386AB86489C90FA9F5058FF7E6A ====

Содержание индексной карты (.CUE)

REM GENRE SoundtrackREM DATE 2017REM DISCID F90BB912REM COMMENT "ExactAudioCopy v1.0b4"PERFORMER "Benjamin Wallfisch"TITLE "A Cure For Wellness (Music From the Motion Picture)"FILE "01 - Hannah and Volmer.wav" WAVE TRACK 01 AUDIO TITLE "Hannah and Volmer" PERFORMER "Benjamin Wallfisch" INDEX 01 00:00:00FILE "02 - Nobody Ever Leaves.wav" WAVE TRACK 02 AUDIO TITLE "Nobody Ever Leaves" PERFORMER "Benjamin Wallfisch" INDEX 01 00:00:00FILE "03 - Bicycle.wav" WAVE TRACK 03 AUDIO TITLE "Bicycle" PERFORMER "Benjamin Wallfisch" INDEX 01 00:00:00FILE "04 - The Rite.wav" WAVE TRACK 04 AUDIO TITLE "The Rite" PERFORMER "Benjamin Wallfisch" INDEX 01 00:00:00FILE "05 - Feuerwalzer.wav" WAVE TRACK 05 AUDIO TITLE "Feuerwalzer" PERFORMER "Benjamin Wallfisch" INDEX 01 00:00:00FILE "06 - Magnificent, Isn't It.wav" WAVE TRACK 06 AUDIO TITLE "Magnificent, Isn't It" PERFORMER "Benjamin Wallfisch" INDEX 01 00:00:00FILE "07 - Actually I'm Feeling Much Better.wav" WAVE TRACK 07 AUDIO TITLE "Actually I'm Feeling Much Better" PERFORMER "Benjamin Wallfisch" INDEX 01 00:00:00FILE "08 - Clearly He's Lost His Mind.wav" WAVE TRACK 08 AUDIO TITLE "Clearly He's Lost His Mind" PERFORMER "Benjamin Wallfisch" INDEX 01 00:00:00FILE "09 - Our Thoughts Exactly.wav" WAVE TRACK 09 AUDIO TITLE "Our Thoughts Exactly" PERFORMER "Benjamin Wallfisch" INDEX 01 00:00:00FILE "10 - Volmer Institut.wav" WAVE TRACK 10 AUDIO TITLE "Volmer Institut" PERFORMER "Benjamin Wallfisch" INDEX 01 00:00:00FILE "11 - Terrible Darkness.wav" WAVE TRACK 11 AUDIO TITLE "Terrible Darkness" PERFORMER "Benjamin Wallfisch" INDEX 01 00:00:00FILE "12 - Lipstick.wav" WAVE TRACK 12 AUDIO TITLE "Lipstick" PERFORMER "Benjamin Wallfisch" INDEX 01 00:00:00FILE "13 - Waiting.wav" WAVE TRACK 13 AUDIO TITLE "Waiting" PERFORMER "Benjamin Wallfisch" INDEX 01 00:00:00FILE "14 - Zutritt Verboten.wav" WAVE TRACK 14 AUDIO TITLE "Zutritt Verboten" PERFORMER "Benjamin Wallfisch" INDEX 01 00:00:00FILE "15 - There's Nothing Wrong With You People.wav" WAVE TRACK 15 AUDIO TITLE "There's Nothing Wrong With You People" PERFORMER "Benjamin Wallfisch" INDEX 01 00:00:00FILE "16 - Lockhart's Letter.wav" WAVE TRACK 16 AUDIO TITLE "Lockhart's Letter" PERFORMER "Benjamin Wallfisch" INDEX 01 00:00:00FILE "17 - Volmer's Lab.wav" WAVE TRACK 17 AUDIO TITLE "Volmer's Lab" PERFORMER "Benjamin Wallfisch" INDEX 01 00:00:00FILE "18 - I Wanna Be Sedated.wav" WAVE TRACK 18 AUDIO TITLE "I Wanna Be Sedated" PERFORMER "Benjamin Wallfisch feat. Mirel Wagner" INDEX 01 00:00:00


[torrentc.info]_t_5596862.torrent
Торрент: Зарегистрирован ·  [ 2018-08-09 20:14 ] ·  6434f96cc4f2dffc352fbff9fcc673dc70a712ac

21 KB

Статус: проверено
Скачан: 0 раз
Размер: 247 MB
Оценка: 
(Голосов: 0)
Сказали спасибо: 0  Спасибо
Похожие темы
[Профиль]    [ЛС]
Показать сообщения:    
Ответить на тему

Текущее время: Сегодня 12:50

Часовой пояс: GMT + 7



Вы не можете начинать темы
Вы не можете отвечать на сообщения
Вы не можете редактировать свои сообщения
Вы не можете удалять свои сообщения
Вы не можете голосовать в опросах
Вы не можете прикреплять файлы к сообщениям
Вы можете скачивать файлы