Герой из прошлого / Герой вне времени / Герой из-за пределов времени / Hero: Beyond the Boundary of Time / Wei Xiao Bao: Feng zhi gou nu (Блэки Ко / Blacky Ko) [1993, Гонконг, боевик, комедия, DVDRip] VO (Хоррор Мэйкер)

Ответить на тему
Статистика раздачи [Обновить пиров]
Размер:  1.37 GB   |    Зарегистрирован:  2 месяца 20 дней   |    Скачан:  0 раз

Полного источника не было: Никогда

 
   
 
 
 
Автор Сообщение

torrentc.info

Создавать темы 02-Авг-2018 23:57

[Цитировать]

Герой из прошлого / Герой вне времени / Герой из-за пределов времени / Hero: Beyond the Boundary of Time / Wei Xiao Bao: Feng zhi gou nu
Страна: Гонконг
Жанр: боевик, комедия
Год выхода: 1993
Продолжительность: 01:36:47
Перевод: Одноголосый закадровый Хоррор Мэйкер
Субтитры: нет
Режиссер: Блэки Ко / Blacky Ko
В ролях: Тони Леунг, Чиу Вай, Дикки Чеунг, Нг Сют-Ман, Вероника Ип, Кен Тонг, София Кроуфорд, Алан Ло, Ванг Гунг-Вай, Кэш Чинь
Описание: Император династии Цинь тяжело болен. Для того, что б император поправился, ученые создают машину времени и отправляют в ней в будущее преданного друга императора, который должен найти лекарство для лечения императора. Но один из врагов императора узнав об этом, посылает в будущее двух убийц которые должны помешать задуманному...
Сэмпл: https://yadi.sk/i/Vbo947XC3Zpwnk
Качество видео: DVDRip (Источник: Torrentc - DVD5)
Формат файла: AVI
Видео: XviD, 704x400, (16:9), 23,976 fps, 1817 Кбит/с, 8 бит
Аудио: Русский (АС3, 2 ch (Front: L R), 48,0 KHz, 192 Kbps

MediaInfo

ОбщееПолное имя : H:\Фильмы на трекер\Герой из прошлого (боевик, комедия 1993 год).aviФормат файла : AVIФормат файла/Информация : Audio Video InterleaveРазмер файла : 1,37 ГбайтПродолжительность : 1 ч. 37 м.Общий поток : 2018 Кбит/секПрограмма кодирования : VirtualDubMod 1.5.10.3 | www.virtualdub-fr.org || (build 2550/release)Библиотека кодирования : VirtualDubMod build 2550/release
ВидеоИдентификатор : 0Формат файла : MPEG-4 VisualПрофиль формата : Advanced Simple@L5Параметр BVOP формата : 2Параметр QPel формата : НетПараметр GMC формата : Без точки переходаПараметр матрицы формата : ВыборочнаяИдентификатор кодека : XVIDИдентификатор кодека/Подсказка : XviDПродолжительность : 1 ч. 37 м.Битрейт : 1817 Кбит/секШирина : 704 пикселяВысота : 400 пикселейСоотношение сторон : 16:9Частота кадров : 23,976 (24000/1001) кадра/секЦветовое пространство : YUVСубдискретизация насыщенности : 4:2:0Битовая глубина : 8 битТип развёртки : ПрогрессивнаяМетод сжатия : С потерямиБит/(Пиксели*Кадры) : 0.269Размер потока : 1,24 Гбайт (90%)Библиотека кодирования : XviD 73
АудиоИдентификатор : 1Формат файла : AC-3Формат файла/Информация : Audio Coding 3Расширение режима : CM (complete main)Параметр Endianness формата : BigИдентификатор кодека : 2000Продолжительность : 1 ч. 37 м.Вид битрейта : ПостоянныйБитрейт : 192 Кбит/секКаналы : 2 каналаРасположение каналов : Front: L RЧастота : 48,0 КГцЧастота кадров : 31,250 кадров/сек (1536 spf)Метод сжатия : С потерямиРазмер потока : 134 Мбайт (10%)Выравнивание : Разделение по промежуткамПродолжительность промежутка : 42 мс. (1,00 видеокадр)Время предзагрузки промежутка : 500 мс.

Скриншот c названием фильма

Скриншоты



[torrentc.info]_t_5595338.torrent
Торрент: Зарегистрирован ·  [ 2018-08-02 23:57 ] ·  a7861a73a3c9d3ebee2faceb7b2f7d002536917a

14 KB

Статус: проверено
Скачан: 0 раз
Размер: 1.37 GB
Оценка: 
(Голосов: 0)
Сказали спасибо: 0  Спасибо
Похожие темы
[Профиль]    [ЛС]
Показать сообщения:    
Ответить на тему

Текущее время: Сегодня 06:56

Часовой пояс: GMT + 7



Вы не можете начинать темы
Вы не можете отвечать на сообщения
Вы не можете редактировать свои сообщения
Вы не можете удалять свои сообщения
Вы не можете голосовать в опросах
Вы не можете прикреплять файлы к сообщениям
Вы можете скачивать файлы