Лэй Фэн / Lei Feng (Дон Чжаоци / Zhaoqi Dong) [1965, Китай, драма, политика, культурная революция, WEBRip] + Sub Rus + Original Zho

Ответить на тему
Статистика раздачи [Обновить пиров]
Размер:  698 MB   |    Зарегистрирован:  3 месяца 17 дней   |    Скачан:  0 раз

Полного источника не было: Никогда

 
   
 
 
 
Автор Сообщение

torrentc.info

Создавать темы 29-Июл-2018 20:39

[Цитировать]

Лэй Фэн / Lei Feng
Страна: Китай
Жанр: драма, политика, культурная революция
Год выхода: 1965
Продолжительность: 01:17:47
Перевод: Субтитры
Субтитры: русские
Оригинальная аудиодорожка: китайский
Режиссер: Дон Чжаоци / Zhaoqi Dong
В ролях: Дон Цитан, Хэ Яньфэн, Ян Гифа, Ян Циньхуа
Описание: Фильм о знаменитом китайском солдате Лэй Фэне.
Лэй Фэн - китайский сирота, воспитанный Народно-освободительной армией Китая, "безымянный герой", жизненный подвиг которого полностью заключался в бескорыстной помощи старшим товарищам, крестьянам и старикам.
Прославлен как образец безупречного альтруизма и верности коммунистическим идеалам, пример для воспитания молодёжи.
В 1963 г., через несколько месяцев после гибели Лэй Фэна, великий кормчий Мао Цзэдун провозгласил лозунг "Учиться у товарища Лэй Фэна".
Лэй Фэн стал новым героем нового общества, равняясь на которого, молодежь, по зову председателя Мао, начинала Великую пролетарскую культурную революцию.

Прообраз главного героя - солдат армии Китая Лэй Фэн

Сэмпл
Качество видео: WEBRip
Формат файла: AVI
Видео: 576x432, 29,97 fps, XviD 1180 kb/s, 0.158 bit/pixel
Аудио: 44.100 kHz, MPEG Layer 3, 1 ch, 64.00 kbps avg
Формат файла субтитров: softsub (SRT)

Фрагмет субтитров

1
00:03:33,513 --> 00:03:35,378
Лэй Фэн
2
00:03:35,448 --> 00:03:38,542
Ван Дали!
3
00:03:38,618 --> 00:03:40,245
- Привет!
- Семижильный что ли?
4
00:03:40,320 --> 00:03:42,049
Ты же только с рейса
5
00:03:42,121 --> 00:03:44,248
И сразу под машину
6
00:03:44,324 --> 00:03:45,450
Крепление нужно подтянуть
7
00:03:45,525 --> 00:03:48,358
Почему сейчас? Можно и завтра
8
00:03:48,428 --> 00:03:51,209
Завтра другая работа
9
00:03:56,325 --> 00:04:00,306
Эй... привез что-то вкусное?
10
00:04:00,373 --> 00:04:00,998
Скорей полезное
11
00:04:01,074 --> 00:04:04,407
Дашь попробовать?
12
00:04:04,477 --> 00:04:06,001
Боюсь зубы сломаешь
13
00:04:06,079 --> 00:04:09,105
Ладно, не жадничай
14
00:04:09,182 --> 00:04:11,006
Лэй Фэн, такого мусора
15
00:04:11,007 --> 00:04:12,583
и возле нашей казармы достаточно
16
00:04:12,652 --> 00:04:14,677
Для чего тебе это?
17
00:04:14,754 --> 00:04:15,880
Коллекционирую.

MediaInfo

ОбщееФормат файла : AVIФормат файла/Информация : Audio Video InterleaveРазмер файла : 698 МбайтПродолжительность : 1 ч. 17 м.Режим общего битрейта : ПеременныйОбщий поток : 1254 Кбит/секПрограмма кодирования : VirtualDubMod 1.5.4.1 (build 2178/release)Библиотека кодирования : VirtualDubMod build 2178/release
ВидеоИдентификатор : 0Формат файла : MPEG-4 VisualПрофиль формата : Advanced Simple@L5Настройки формата : BVOP1Параметр BVOP формата : 1Параметр QPel формата : НетПараметр GMC формата : Без точки переходаПараметр матрицы формата : Default (H.263)Режим смешивания : Сжатый битовый потокИдентификатор кодека : XVIDИдентификатор кодека/Подсказка : XviDПродолжительность : 1 ч. 17 м.Битрейт : 1180 Кбит/секШирина : 576 пикселейВысота : 432 пикселяСоотношение сторон : 4:3Частота кадров : 29,970 (30000/1001) кадров/секЦветовое пространство : YUVСубдискретизация насыщенности : 4:2:0Битовая глубина : 8 битТип развёртки : ПрогрессивнаяМетод сжатия : С потерямиБит/(Пиксели*Кадры) : 0.158Размер потока : 657 Мбайт (94%)Библиотека кодирования : XviD 1.2.0SMP (UTC 2006-01-08)
АудиоИдентификатор : 1Формат файла : MPEG AudioВерсия формата : Version 1Профиль формата : Layer 3Идентификатор кодека : 55Идентификатор кодека/Подсказка : MP3Продолжительность : 1 ч. 17 м.Вид битрейта : ПеременныйБитрейт : 60,0 Кбит/секНоминальный битрейт : 64,0 Кбит/секКаналы : 1 каналЧастота : 48,0 КГцЧастота кадров : 41,667 кадра/сек (1152 SPF)Метод сжатия : С потерямиРазмер потока : 33,4 Мбайт (5%)Выравнивание : Соединение по промежуткамПродолжительность промежутка : 24 мс. (0,72 видеокадр)Время предзагрузки промежутка : 557 мс.Библиотека кодирования : LAME3.97bНастройки программы : -m m -V 4 -q 2 -lowpass 16.5 --abr 64Язык : Chinese
ОбщееПолное имя : F:\К раздаче\Lei Feng (1965)\Lei Feng (1965).srtФормат файла : SubRipРазмер файла : 55,4 Кбайт
ТекстФормат файла : SubRipМетод сжатия : Без потерь

Скриншот c названием фильма

Скриншоты



[torrentc.info]_t_5593483.torrent
Торрент: Зарегистрирован ·  [ 2018-07-29 20:39 ] ·  d2914c11e8163b82392f50a42f6033acef458af1

14 KB

Статус: проверено
Скачан: 0 раз
Размер: 698 MB
Оценка: 
(Голосов: 0)
Сказали спасибо: 0  Спасибо
Похожие темы
[Профиль]    [ЛС]
Показать сообщения:    
Ответить на тему

Текущее время: Сегодня 12:33

Часовой пояс: GMT + 7



Вы не можете начинать темы
Вы не можете отвечать на сообщения
Вы не можете редактировать свои сообщения
Вы не можете удалять свои сообщения
Вы не можете голосовать в опросах
Вы не можете прикреплять файлы к сообщениям
Вы можете скачивать файлы