Операция в Красном море / Operation Red Sea (Данте Лам / Dante Lam) [2018, Китай, боевик, военный, HDRip] DVO

Ответить на тему
Статистика раздачи [Обновить пиров]
Размер:  1.46 GB   |    Зарегистрирован:  2 месяца 28 дней   |    Скачан:  2 раза

Полного источника не было: 1 месяц 4 дня

 
   
 
 
 
Автор Сообщение

torrentc.info

Создавать темы 26-Июл-2018 21:45

[Цитировать]

Операция в Красном море / Operation Red Sea
Страна: Китай
Жанр: боевик, военный
Год выхода: 2018
Продолжительность: 02:18:49-Перевод: Любительский (двухголосый закадровый) | den904 & DeadSno
Субтитры: нет
Оригинальная аудиодорожка: нет-Режиссер: Данте Лам / Dante Lam-В ролях: И Чжан, Джонни Хуан, Хай-Цин, Ду Цзян, Луся Цзян, Санаа Алауи, Инь Фан, Ван Юйтянь, Го Цзяхао, Генри Принц Мак-Описание: В Аденском заливе около Красного моря пираты захватили судно. Но им противостоит элитный отряд китайского спецназа который проводит спецоперацию по освобождению заложников и осуществляет эвакуацию своих соотечественников из горячей точки. Одновременно восьмерым бойцам предстоит противостоять террористической группировке, захватившей материалы для производства ядерного оружия.-Доп. инфо: За подгон и чистку от рекламы звуковой дорожки, благодарим Нордер-Качество видео: HDRip
Формат файла: AVI
Видео: 720x304 (2.37:1), 24.000 fps, XviD build 73 ~1303 kbps avg, 0.25 bit/pixel
Аудио: 48 kHz, AC3 Dolby Digital, 2/0 (L,R) ch, ~192 kbps-

Сэмпл-

MediaInfo

Формат файла                                   : AVI
Формат файла/Информация                        : Audio Video Interleave
Размер файла                             : 1,46 Гбайт
Продолжительность                        : 2 ч. 18 м.
Общий поток                              : 1505 Кбит/сек
Программа кодирования                    : VirtualDubMod 1.5.10.2 (build 2542/release)
Библиотека кодирования                   : VirtualDubMod build 2542/release
Видео
Идентификатор                            : 0
Формат файла                                   : MPEG-4 Visual
Профиль формата                          : Advanced Simple@L5
Настройки формата                        : BVOP1
Параметр BVOP формата                    : 1
Параметр QPel формата                    : Нет
Параметр GMC формата                     : Без точки перехода
Параметр матрицы формата                 : Default (MPEG)
Идентификатор кодека                     : XVID
Идентификатор кодека/Подсказка           : XviD
Продолжительность                        : 2 ч. 18 м.
Битрейт                                  : 1304 Кбит/сек
Ширина                                   : 720 пикселей
Высота                                   : 304 пикселя
Соотношение сторон                       : 2,35:1
Частота кадров                           : 24,000 кадра/сек
Цветовое пространство                    : YUV
Субдискретизация насыщенности            : 4:2:0
Битовая глубина                          : 8 бит
Тип развёртки                            : Прогрессивная
Метод сжатия                             : С потерями
Бит/(Пиксели*Кадры)                      : 0.248
Размер потока                            : 1,26 Гбайт (87%)
Библиотека кодирования                   : XviD 73
Аудио
Идентификатор                            : 1
Формат файла                                   : AC-3
Формат файла/Информация                        : Audio Coding 3
Идентификатор кодека                     : 2000
Продолжительность                        : 2 ч. 18 м.
Вид битрейта                             : Постоянный
Битрейт                                  : 192 Кбит/сек
Каналы                                   : 2 канала
Расположение каналов                     : Front: L R
Частота                                  : 48,0 КГц
Частота кадров                           : 31,250 кадров/сек (1536 SPF)
Битовая глубина                          : 16 бит
Метод сжатия                             : С потерями
Размер потока                            : 191 Мбайт (13%)
Выравнивание                             : Соединение по промежуткам
Продолжительность промежутка             : 42  мс. (1,00 видеокадр)
Время предзагрузки промежутка            : 512  мс.
ServiceKind/String                       : Complete Main

Скриншоты




[torrentc.info]_t_5592154.torrent
Торрент: Зарегистрирован ·  [ 2018-07-26 21:45 ] ·  b8c6abe5ce4ae11ea7a46ebe0def673a5d4faca3

15 KB

Статус: проверено
Скачан: 2 раз
Размер: 1.46 GB
Оценка: 
(Голосов: 0)
Сказали спасибо: 0  Спасибо
Похожие темы
[Профиль]    [ЛС]
Показать сообщения:    
Ответить на тему

Текущее время: Сегодня 12:04

Часовой пояс: GMT + 7



Вы не можете начинать темы
Вы не можете отвечать на сообщения
Вы не можете редактировать свои сообщения
Вы не можете удалять свои сообщения
Вы не можете голосовать в опросах
Вы не можете прикреплять файлы к сообщениям
Вы можете скачивать файлы