Наследие охотника на белохвостого оленя / The Legacy of a Whitetail Deer Hunter (Джоди Хилл / Jody Hill) [2018, США, комедия, WEB-DLRip] MVO

Ответить на тему
 
Автор Сообщение

torrentc.info

Создавать темы 23-Июл-2018 00:39

[Цитировать]

Наследие охотника на белохвостого оленя / The Legacy of a Whitetail Deer Hunter
Страна: США
Жанр: комедия
Год выхода: 2018
Продолжительность: 01:23:15-Перевод: Любительский (многоголосый закадровый) | HDrezka Studio
Субтитры: нет
Оригинальная аудиодорожка: нет-Режиссер: Джоди Хилл / Jody Hill-В ролях: Джош Бролин, Кэрри Кун, Дэнни МакБрайд, Скут МакНэри, Монтана Джордан, Уилльям Ковбой Рид-Описание: Много лет Бак Фергюсон увлечен охотой – походы по лесам и скалам в поисках добычи стали для него смыслом жизни, приведшим однажды к разводу с женой и расставанию с сыном Джейденом. Впрочем, Бак не отчаивается и намеревается вернуть расположение сына к себе, отправившись с ним в длительный поход, который по замыслу мужчины должен открыть в ребенке страсть к охоте – Фергюсон-старший даже намеревается подарить своему наследнику фамильное ружье, символизирующее связь поколений. Вот только Джейдену, обычному городскому школьнику, не больно-то интересно таскаться по камням и сырым кустам в местах, где не ловит вайфай и где нельзя поиграть в приставку. Даже обнаруженный охотниками огромный олень с ветвистыми рогами, который просто выпрашивает пулю, мальчишку не прельщает, и путешествие постепенно превращается в мучительный кошмар и для отца, и для сына, пока обстоятельства не заставляют родных людей сплотиться для спасения жизни общего приятеля – в этот момент и обнаруживается, что уроки Бака не прошли бесследно.-Качество видео: WEB-DLRip
Формат файла: AVI
Видео: 720x304 (2.37:1), 23.976 fps, XviD build 73 ~2301 kbps avg, 0.44 bit/pixel
Аудио: 48 kHz, AC3 Dolby Digital, 2/0 (L,R) ch, ~192 kbps avg-

Сэмпл-

MediaInfo

[pre]
Формат файла                                   : AVI
Формат файла/Информация                        : Audio Video Interleave
Размер файла                             : 1,46 Гбайт
Продолжительность                        : 1 ч. 23 м.
Общий поток                              : 2503 Кбит/сек
Программа кодирования                    : VirtualDubMod 1.5.10.2 (build 2542/release)
Библиотека кодирования                   : VirtualDubMod build 2542/release
Видео
Идентификатор                            : 0
Формат файла                                   : MPEG-4 Visual
Профиль формата                          : Advanced Simple@L5
Настройки формата                        : BVOP1 / Custom Matrix
Параметр BVOP формата                    : 1
Параметр QPel формата                    : Нет
Параметр GMC формата                     : Без точки перехода
Параметр матрицы формата                 : Выборочная
Идентификатор кодека                     : XVID
Идентификатор кодека/Подсказка           : XviD
Продолжительность                        : 1 ч. 23 м.
Битрейт                                  : 2301 Кбит/сек
Ширина                                   : 720 пикселей
Высота                                   : 304 пикселя
Соотношение сторон                       : 2,35:1
Частота кадров                           : 23,976 (24000/1001) кадра/сек
Цветовое пространство                    : YUV
Субдискретизация насыщенности            : 4:2:0
Битовая глубина                          : 8 бит
Тип развёртки                            : Прогрессивная
Метод сжатия                             : С потерями
Бит/(Пиксели*Кадры)                      : 0.439
Размер потока                            : 1,34 Гбайт (92%)
Библиотека кодирования                   : XviD 73
Аудио
Идентификатор                            : 1
Формат файла                                   : AC-3
Формат файла/Информация                        : Audio Coding 3
Идентификатор кодека                     : 2000
Продолжительность                        : 1 ч. 23 м.
Вид битрейта                             : Постоянный
Битрейт                                  : 192 Кбит/сек
Каналы                                   : 2 канала
Расположение каналов                     : Front: L R
Частота                                  : 48,0 КГц
Частота кадров                           : 31,250 кадров/сек (1536 SPF)
Битовая глубина                          : 16 бит
Метод сжатия                             : С потерями
Размер потока                            : 114 Мбайт (8%)
Выравнивание                             : Разделение по промежуткам
Продолжительность промежутка             : 42  мс. (1,00 видеокадр)
Время предзагрузки промежутка            : 500  мс.
ServiceKind/String                       : Complete Main

Скриншоты


[Профиль]    [ЛС]
Показать сообщения:    
Ответить на тему

Текущее время: Сегодня 17:52

Часовой пояс: GMT + 7



Вы не можете начинать темы
Вы не можете отвечать на сообщения
Вы не можете редактировать свои сообщения
Вы не можете удалять свои сообщения
Вы не можете голосовать в опросах
Вы не можете прикреплять файлы к сообщениям
Вы не можете скачивать файлы