Муниципальный духовой оркестр Таганрога 23.02.2016 [2016, Jazz, HDCam, 1080p]

Ответить на тему
Статистика раздачи [Обновить пиров]
Размер:  4.25 GB   |    Зарегистрирован:  2 месяца 29 дней   |    Скачан:  0 раз

Полного источника не было: Никогда

Личеров:  1  [  0 KB/s  ]   Подробная статистика скачивающих
 
   
 
 
 
Автор Сообщение

torrentc.info

Создавать темы 19-Июл-2018 21:53

[Цитировать]

Муниципальный духовой оркестр Таганрога 23.02.2016
Жанр: Orchestral, Folk
Продолжительность: 01:19:30
Год выхода: 2016
Описание: Праздничный концерт Городского муниципального духового оркестра г.Таганрога, посвященный 23 февраля 2016 г.
Треклист:
1. "Фантазия на тему песен об Армии и Флоте"
2. "Рябинушка" (исп. Н. Аникина)
3. Дж. Бауэр - "Варианты"
4. А. Пьяцолло - "Память сердца"
5. "Хоро-Стаккато" (соло А. Полтавский)
6. "Там за туманами" (исп. В. Рубан)
7. "Боливар" (соло К. Надолинский)
8. "Интродукция к опере 'Алеко' "
9. "Концертино" (соло Е. Ткаченко)
10. "Офицеры" (исп. В Рубан)
11. "Марш на тему песен о войне"
12. "Крещендо"
13. В. Гридин - "Рассыпуха" (соло А. Гагарин)
14. Zequinha de Abreu - "Tico-Tico"
15. Г. Фильмор - "Скользящие тромбоны" (соло А. Лихоносов, В. Акимов, К. Надолинский)
16. "Парад солистов"
17. "Нашей юности оркестр" (исп. Н. Аникина)
18. В. Агапкин - "Прощание славянки"
Качество: HDCamRip
Разрешение видео/развертка: 1080p
Формат файла: MP4
Видео кодек: H.264
Аудио кодек: AAC
Видео: h.264, 1920x1080, 7.5 Mbps, 25 fps
Аудио: AAC, 129 kbps, 48 kHz, 2 ch

Отчёт MediaInfo / BDInfo

ОбщееПолное имя : Муниципальный духовой оркестр Таганрога. Концерт 23.02.2016.mp4Формат файла : MPEG-4Профиль формата : Base MediaИдентификатор кодека : isom (isom/iso2/avc1/mp41)Размер файла : 4,25 ГбайтПродолжительность : 1 ч. 19 м.Общий поток : 7658 Кбит/секПрограмма кодирования : Lavf57.56.101
ВидеоИдентификатор : 1Формат файла : AVCФормат файла/Информация : Advanced Video CodecПрофиль формата : High@L4Настройки формата : CABAC / 4 Ref FramesПараметр CABAC формата : ДаПараметр RefFrames формата : 4 кадраИдентификатор кодека : avc1Идентификатор кодека/Информация : Advanced Video CodingПродолжительность : 1 ч. 19 м.Битрейт : 7500 Кбит/секШирина : 1920 пикселейВысота : 1080 пикселейСоотношение сторон : 16:9Режим частоты кадров : ПостоянныйЧастота кадров : 25,000 кадров/секЦветовое пространство : YUVСубдискретизация насыщенности : 4:2:0Битовая глубина : 8 битТип развёртки : ПрогрессивнаяБит/(Пиксели*Кадры) : 0.145Размер потока : 4,18 Гбайт (98%)Библиотека кодирования : x264 core 148 r2762 90a61ecНастройки программы : cabac=1 / ref=3 / deblock=1:0:0 / analyse=0x3:0x113 / me=hex / subme=7 / psy=1 / psy_rd=1.00:0.00 / mixed_ref=1 / me_range=16 / chroma_me=1 / trellis=1 / 8x8dct=1 / cqm=0 / deadzone=21,11 / fast_pskip=1 / chroma_qp_offset=-2 / threads=6 / lookahead_threads=1 / sliced_threads=0 / nr=0 / decimate=1 / interlaced=0 / bluray_compat=0 / constrained_intra=0 / bframes=3 / b_pyramid=2 / b_adapt=1 / b_bias=0 / direct=1 / weightb=1 / open_gop=0 / weightp=2 / keyint=250 / keyint_min=25 / scenecut=40 / intra_refresh=0 / rc_lookahead=40 / rc=abr / mbtree=1 / bitrate=7500 / ratetol=1.0 / qcomp=0.60 / qpmin=0 / qpmax=69 / qpstep=4 / ip_ratio=1.40 / aq=1:1.00
АудиоИдентификатор : 2Формат файла : AACФормат файла/Информация : Advanced Audio CodecПрофиль формата : LCИдентификатор кодека : mp4a-40-2Продолжительность : 1 ч. 19 м.Вид битрейта : ПостоянныйБитрейт : 129 Кбит/секКаналы : 2 каналаРасположение каналов : Front: L RЧастота : 48,0 КГцЧастота кадров : 46,875 кадров/сек (1024 SPF)Метод сжатия : С потерямиРазмер потока : 73,3 Мбайт (2%)Default : ДаAlternateGroup/String : 1

Скриншоты



[torrentc.info]_t_5585854.torrent
Торрент: Зарегистрирован ·  [ 2018-07-19 21:51 ] ·  db98a2f1a035c6ce38607b8b176b308a154b0115

22 KB

Статус: проверено
Скачан: 0 раз
Размер: 4.25 GB
Оценка: 
(Голосов: 0)
Сказали спасибо: 0  Спасибо
Похожие темы
[Профиль]    [ЛС]
Показать сообщения:    
Ответить на тему

Текущее время: Сегодня 19:24

Часовой пояс: GMT + 7



Вы не можете начинать темы
Вы не можете отвечать на сообщения
Вы не можете редактировать свои сообщения
Вы не можете удалять свои сообщения
Вы не можете голосовать в опросах
Вы не можете прикреплять файлы к сообщениям
Вы можете скачивать файлы