(Hard Rock) [CD] Ampage - Iron Horse - 1997, FLAC (image+.cue), lossless

Ответить на тему
Статистика раздачи [Обновить пиров]
Размер:  317 MB   |    Зарегистрирован:  1 месяц 19 дней   |    Скачан:  0 раз

Полного источника не было: Никогда

 
   
 
 
 
Автор Сообщение

torrentc.info

Создавать темы 01-Июл-2018 02:06

[Цитировать]

Ampage - Iron Horse



• Жанр: Hard Rock
• Носитель: CD
• Страна-производитель диска (релиза):USA
• Год издания: 1997
• Издатель (лейбл) Higher Source Records
• Номер по каталогу: none
• Страна исполнителя (группы): USA
• Аудиокодек: FLAC (*.flac)
• Тип рипа: image+.cue
• Продолжительность: 00:39:46
• Источник (релизер): kikel ®
• Наличие сканов: да

01. Words {00:03:28}
02. Downtown Playground {00:03:34}
03. Rain {00:04:18}
04. Bullet To Gatwick {00:03:38}
05. I Needed Someone {00:03:36}
06. Bamboozaler {00:03:32}
07. Heaven {00:03:40}
08. American, Red, White And Blues {00:03:15}
09. Beast Inside {00:03:18}
10. Mona Lisa {00:03:21}
11. Gimme Some Truth {00:04:01}
-

Лог проверки качества

-----------------------
DON'T MODIFY THIS FILE
-----------------------
PERFORMER: auCDtect Task Manager, ver. 1.6.0 RC1 build 1.6.0.1Copyright (c) 2008-2010 y-soft. All rights reservedhttp://y-soft.org
ANALYZER: auCDtect: CD records authenticity detector, version 0.8.2Copyright (c) 2004 Oleg Berngardt. All rights reserved.Copyright (c) 2004 Alexander Djourik. All rights reserved.
FILE: Ampage , - Iron Horse.flac Size: 312137305 Hash: 5BE23EACDEECD829590D32D9B7026F86 Accuracy: -m0 Conclusion: CDDA 100% Signature: 3B185555013383337C44F10973668D5156B2F784
-

Лог создания рипа

Exact Audio Copy V1.3 from 2. September 2016
Отчёт EAC об извлечении, выполненном 22. июня 2018, 19:38
Ampage , / Iron Horse
Дисковод: HL-DT-STDVDRAM GU40N Adapter: 1 ID: 0
Режим чтения : ДостоверностьИспользование точного потока : ДаОтключение кэша аудио : ДаИспользование указателей C2 : Нет
Коррекция смещения при чтении : 103Способность читать области Lead-in и Lead-out : НетЗаполнение пропущенных сэмплов тишиной : ДаУдаление блоков с тишиной в начале и конце : НетПри вычислениях CRC использовались нулевые сэмплы : ДаИнтерфейс : Встроенный Win32-интерфейс для Win NT/2000
Выходной формат : Пользовательский кодировщикВыбранный битрейт : 1024 kBit/sКачество : ВысокийДобавление ID3-тега : НетУтилита сжатия : C:\Program Files (x86)\Exact Audio Copy\Flac\flac.exeДополнительные параметры : -V -8 -T "Date=%year%" -T "Genre=%genre%" %source%
TOC извлечённого CD
Трек | Старт | Длительность | Начальный сектор | Конечный сектор --------------------------------------------------------------------- 1 | 0:00.00 | 3:28.67 | 0 | 15666 2 | 3:28.67 | 3:34.02 | 15667 | 31718 3 | 7:02.69 | 4:18.58 | 31719 | 51126 4 | 11:21.52 | 3:38.63 | 51127 | 67539 5 | 15:00.40 | 3:36.40 | 67540 | 83779 6 | 18:37.05 | 3:32.07 | 83780 | 99686 7 | 22:09.12 | 3:40.45 | 99687 | 116231 8 | 25:49.57 | 3:15.05 | 116232 | 130861 9 | 29:04.62 | 3:18.15 | 130862 | 145726 10 | 32:23.02 | 3:21.40 | 145727 | 160841 11 | 35:44.42 | 4:02.18 | 160842 | 179009
Характеристики диапазона извлечения и сообщения об ошибках
Выбранный диапазон
Имя файла C:\Users\workutagin\Desktop\AMPAGE - IRON HORSE 1997\Ampage , - Iron Horse.wav
Пиковый уровень 99.1 % Скорость извлечения 1.9 X Качество диапазона 100.0 % CRC теста 6266B9C4 CRC копии 6266B9C4 Копирование... OK
Ошибок не произошло
AccurateRip: сводка
Трек 1 : извлечено точно (доверие 1) [1AD82D03] (AR v1)Трек 2 : извлечено точно (доверие 1) [FE474390] (AR v1)Трек 3 : извлечено точно (доверие 1) [9A83B95F] (AR v1)Трек 4 : извлечено точно (доверие 1) [B9924479] (AR v1)Трек 5 : извлечено точно (доверие 1) [C9C925D5] (AR v1)Трек 6 : извлечено точно (доверие 1) [816E5295] (AR v1)Трек 7 : извлечено точно (доверие 1) [5B950551] (AR v1)Трек 8 : извлечено точно (доверие 1) [001DE7F1] (AR v1)Трек 9 : извлечено точно (доверие 1) [10B3ABF0] (AR v1)Трек 10 : извлечено точно (доверие 1) [EED55F72] (AR v1)Трек 11 : извлечено точно (доверие 1) [06D9FE70] (AR v1)
Все треки извлечены точно
Конец отчёта
---- CUETools DB Plugin V2.1.6
[CTDB TOCID: dXrQT4f.539CWSaKVYSvkkAPUPc-] disk not present in databaseSubmit result: dXrQT4f.539CWSaKVYSvkkAPUPc- has been uploaded
==== Контрольная сумма отчёта 7C6F5AE57C181359E8E5FFCA938807F6FC1DC1D0E150420576844692AF81B47E ====
-

Содержание индексной карты

REM GENRE RockREM DATE 1997REM DISCID 7D09520BREM COMMENT "ExactAudioCopy v1.3"PERFORMER "Ampage , "TITLE "Iron Horse"REM COMPOSER ""FILE "Ampage , - Iron Horse.flac" WAVE TRACK 01 AUDIO TITLE "Words" PERFORMER "Ampage , " REM COMPOSER "" INDEX 01 00:00:00 TRACK 02 AUDIO TITLE "Downtown Playground" PERFORMER "Ampage , " REM COMPOSER "" INDEX 01 03:28:67 TRACK 03 AUDIO TITLE "Rain" PERFORMER "Ampage , " REM COMPOSER "" INDEX 01 07:02:69 TRACK 04 AUDIO TITLE "Bullet To Gatwick" PERFORMER "Ampage , " REM COMPOSER "" INDEX 01 11:21:52 TRACK 05 AUDIO TITLE "I Needed Someone" PERFORMER "Ampage , " REM COMPOSER "" INDEX 01 15:00:40 TRACK 06 AUDIO TITLE "Bamboozaler" PERFORMER "Ampage , " REM COMPOSER "" INDEX 01 18:37:05 TRACK 07 AUDIO TITLE "Heaven" PERFORMER "Ampage , " REM COMPOSER "" INDEX 01 22:09:12 TRACK 08 AUDIO TITLE "American, Red, White And Blues" PERFORMER "Ampage , " REM COMPOSER "" INDEX 01 25:49:57 TRACK 09 AUDIO TITLE "Beast Inside" PERFORMER "Ampage , " REM COMPOSER "" INDEX 01 29:04:62 TRACK 10 AUDIO TITLE "Mona Lisa" PERFORMER "Ampage , " REM COMPOSER "" INDEX 01 32:23:02 TRACK 11 AUDIO TITLE "Gimme Some Truth" PERFORMER "Ampage , " REM COMPOSER "" INDEX 00 35:44:22 INDEX 01 35:44:42
--

Скриншот подозрительных спектров

--


[torrentc.info]_t_5578140.torrent
Торрент: Зарегистрирован ·  [ 2018-07-01 02:01 ] ·  b98d48c40632d66442ae8e51688a2a9c15edeb98

13 KB

Статус: проверено
Скачан: 0 раз
Размер: 317 MB
Оценка: 
(Голосов: 0)
Сказали спасибо: 0  Спасибо
Похожие темы
[Профиль]    [ЛС]
Показать сообщения:    
Ответить на тему

Текущее время: Сегодня 12:26

Часовой пояс: GMT + 7



Вы не можете начинать темы
Вы не можете отвечать на сообщения
Вы не можете редактировать свои сообщения
Вы не можете удалять свои сообщения
Вы не можете голосовать в опросах
Вы не можете прикреплять файлы к сообщениям
Вы можете скачивать файлы