[TR24][OF] Aegri Somnia - Endtime Psalms - 2017 (Dark Ambient)

Ответить на тему
Статистика раздачи [Обновить пиров]
Размер:  545 MB   |    Зарегистрирован:  28 дней   |    Скачан:  0 раз

Полного источника не было: Никогда

 
   
 
 
 
Автор Сообщение

torrentc.info

Создавать темы 23-Июн-2018 05:19

[Цитировать]

Aegri Somnia - Endtime Psalms
✹✹✹✹✹✹✹✹✹✹✹✹✹✹✹✹✹✹✹✹✹✹

• Формат файла записи | Источник записи: [TR24][OF]
• Наличие водяных знаков: Нет
• Страна-производитель релиза: USA (Oregon)
• Страна исполнителя: Croatia
• Год издания релиза: 2017
• Жанр: Dark Ambient
• Издатель (лейбл): Cryo Chamber
• Продолжительность: 00:53:23
• WEB bandcamp
• Формат файла: FLAC (*.flac)
• Тип рипа: tracks
• Разрядность: 24/44,1
• Формат файла: WAV (flac.ape.wv)
• Количество каналов: 2.0
• Наличие сканов: front

01 - C.A.H.R. (00:06:42)
02 - Archives (00:06:10)
03 - Endtime Psalms (00:05:53)
04 - DNA Cult (00:05:44)
05 - Mundus Moriens (00:06:10)
06 - Borg Sands (00:05:49)
07 - Puppets (00:05:39)
08 - Metamorphosis (00:05:30)
09 - We Were Stardust (00:05:43)
-

• Замер динамического диапазона •


foobar2000 1.2.5 / Замер динамического диапазона (DR) 1.1.1
Дата отчёта: 2017-04-05 19:53:31
--------------------------------------------------------------------------------
Анализ: Aegri Somnia / Endtime Psalms
--------------------------------------------------------------------------------
DR Пики RMS Продолжительность трека
--------------------------------------------------------------------------------
DR7 0.00 дБ -10.34 дБ 6:42 01-C.A.H.R.
DR8 0.00 дБ -10.87 дБ 6:11 02-Archives
DR8 0.00 дБ -11.00 дБ 5:53 03-Endtime Psalms
DR9 0.00 дБ -11.08 дБ 5:45 04-DNA Cult
DR9 0.00 дБ -11.80 дБ 6:10 05-Mundus Moriens
DR9 0.00 дБ -11.06 дБ 5:50 06-Borg Sands
DR8 0.00 дБ -9.94 дБ 5:40 07-Puppets
DR9 0.00 дБ -11.51 дБ 5:30 08-Metamorphosis
DR7 0.00 дБ -10.16 дБ 5:43 09-We Were Stardust
--------------------------------------------------------------------------------
Количество треков: 9
Реальные значения DR: DR8
Частота: 44100 Гц
Каналов: 2
Разрядность: 24
Битрейт: 1384 кбит/с
Кодек: FLAC
================================================================================
--• Information •Aegri somnia returns with his long awaited second album on Cryo Chamber.
The hum of the Endtime Psalms echo through burnt out buildings. Awaiting impending death as the sky grows dark. Black smoke wheezing from charred windows. We we're born from stardust, but are but puppets in a mindless game of DNA manipulation, life.
Deep analogue drones rumble under the heavy boots of the human machine. Aegri Somnia plays the role of field recorder and audio manipulator with surgical precision.
released March 7, 2017
Written, Produced, Performed - Jurica Santek
Artwork & Mastering - Simon Heath
--

• Скриншот спектра частот •

--


[torrentc.info]_t_5577512.torrent
Торрент: Зарегистрирован ·  [ 2018-06-23 05:19 ] ·  4d498ee59c45c13075f3641c86348051c5961d34

12 KB

Статус: проверено
Скачан: 0 раз
Размер: 545 MB
Оценка: 
(Голосов: 0)
Сказали спасибо: 0  Спасибо
Похожие темы
[Профиль]    [ЛС]
Показать сообщения:    
Ответить на тему

Текущее время: Сегодня 22:22

Часовой пояс: GMT + 7



Вы не можете начинать темы
Вы не можете отвечать на сообщения
Вы не можете редактировать свои сообщения
Вы не можете удалять свои сообщения
Вы не можете голосовать в опросах
Вы не можете прикреплять файлы к сообщениям
Вы можете скачивать файлы