(Darkwave / Electronic / Future Garage / Trap) [WEB] Restricted Collective - Restricted Compilation 001 - 2018, FLAC (tracks), lossless

Ответить на тему
Статистика раздачи [Обновить пиров]
Размер:  290 MB   |    Зарегистрирован:  2 месяца 29 дней   |    Скачан:  0 раз
Сидеров:  1  [  0 KB/s  ]   Подробная статистика скачивающих
 
   
 
 
 
Автор Сообщение

torrentc.info

Создавать темы 23-Июн-2018 01:31

[Цитировать]

Restricted Collective / Restricted Compilation 001

Жанр: Darkwave / Electronic / Future Garage / Trap
Носитель: WEB
Год издания: 2018
Страна исполнителя (группы): Antarctica
Аудиокодек: FLAC (*.flac)
Тип рипа: tracks
Битрейт аудио: lossless
Продолжительность: 34:19
Наличие сканов в содержимом раздачи: да (front)
Источник (релизер): Собственная покупка



01. Sorcer - Haze
02. Kairu - Figure
03. iSorin - Introspection
04. pexØt - Illusions
05. nathin - Out of mind
06. lutr x tydø - Inspire
07. Memphis. - Prohibition
08. FLLNÐR - We stay.
09. akiaura - Silk2side
10. MRKRYL - Make me
11. soul.kai - Restricted

Dynamic Range Meter

foobar2000 1.3.17 / Dynamic Range Meter 1.1.1log date: 2018-06-16 19:07:26
--------------------------------------------------------------------------------Analyzed: Restricted Collective / Restricted Compilation 001--------------------------------------------------------------------------------
DR Peak RMS Duration Track--------------------------------------------------------------------------------DR7 -0.19 dB -8.91 dB 3:14 01-Sorcer - HazeDR10 -1.12 dB -15.10 dB 3:02 02-Kairu - FigureDR4 -0.10 dB -5.95 dB 3:53 03-iSorin - IntrospectionDR6 -0.16 dB -9.04 dB 3:12 04-pexØt - Illusions--------------------------------------------------------------------------------
Number of tracks: 4Official DR value: DR7
Samplerate: 44100 HzChannels: 2Bits per sample: 16Bitrate: 842 kbpsCodec: FLAC================================================================================
--------------------------------------------------------------------------------Statistics for: 05-nathin - Out of mindNumber of samples: 6931718Duration: 2:37--------------------------------------------------------------------------------
Left Right
Peak Value: -0.20 dB --- -0.21 dBAvg RMS: -8.21 dB --- -8.17 dBDR channel: 5.47 dB --- 5.43 dB--------------------------------------------------------------------------------
Official DR Value: DR5
Samplerate: 44100 HzChannels: 2Bits per sample: 24Bitrate: 1561 kbpsCodec: FLAC================================================================================--------------------------------------------------------------------------------Analyzed: Restricted Collective / Restricted Compilation 001--------------------------------------------------------------------------------
DR Peak RMS Duration Track--------------------------------------------------------------------------------DR3 0.00 dB -4.08 dB 3:15 06-lutr x tydø - InspireDR3 0.00 dB -5.34 dB 2:16 07-Memphis. - Prohibition--------------------------------------------------------------------------------
Number of tracks: 2Official DR value: DR3
Samplerate: 44100 HzChannels: 2Bits per sample: 16Bitrate: 853 kbpsCodec: FLAC================================================================================
--------------------------------------------------------------------------------Analyzed: Restricted Collective / Restricted Compilation 001--------------------------------------------------------------------------------
DR Peak RMS Duration Track--------------------------------------------------------------------------------DR6 -0.10 dB -7.69 dB 1:56 08-FLLNÐR - We stay.DR4 0.00 dB -6.72 dB 3:23 09-akiaura - Silk2sideDR5 0.00 dB -8.72 dB 3:58 11-soul.kai - Restricted--------------------------------------------------------------------------------
Number of tracks: 3Official DR value: DR5
Samplerate: 44100 HzChannels: 2Bits per sample: 24Bitrate: 1323 kbpsCodec: FLAC================================================================================
--------------------------------------------------------------------------------Statistics for: 10-MRKRYL - Make meNumber of samples: 10203429Duration: 3:33--------------------------------------------------------------------------------
Left Right
Peak Value: -0.02 dB --- -0.02 dBAvg RMS: -5.16 dB --- -5.24 dBDR channel: 3.41 dB --- 3.57 dB--------------------------------------------------------------------------------
Official DR Value: DR3
Samplerate: 48000 HzChannels: 2Bits per sample: 24Bitrate: 1672 kbpsCodec: FLAC================================================================================

auCDtect

CUE Corrector v. 8.3.2 / b. 824 (Oct. 12, 2017)
————————————————————————————————————————————————————————————————————————
Restricted Collective / Restricted Compilation 001
Folder: Restricted Collective - Restricted Compilation 001
Audio files:
01. Sorcer - Haze.flac [03:14.400; FLAC • 747 kbps • 16 bit \ 44100 Hz • stereo; 17.33 MB (18 172 229 B)]
02. Kairu - Figure.flac [03:01.520; FLAC • 762 kbps • 16 bit \ 44100 Hz • stereo; 16.50 MB (17 299 734 B)]
03. iSorin - Introspection.flac [03:52.840; FLAC • 967 kbps • 16 bit \ 44100 Hz • stereo; 26.86 MB (28 167 129 B)]
04. pexØt - Illusions.flac [03:12.000; FLAC • 847 kbps • 16 bit \ 44100 Hz • stereo; 19.40 MB (20 340 145 B)]
05. nathin - Out of mind.flac [02:37.187; FLAC • 1566 kbps • 24 bit \ 44100 Hz • stereo; 29.36 MB (30 785 915 B)]
06. lutr x tydø - Inspire.flac [03:14.947; FLAC • 927 kbps • 16 bit \ 44100 Hz • stereo; 21.56 MB (22 609 277 B)]
07. Memphis. - Prohibition.flac [02:16.000; FLAC • 860 kbps • 16 bit \ 44100 Hz • stereo; 13.94 MB (14 621 264 B)]
08. FLLNÐR - We stay..flac [01:55.907; FLAC • 1673 kbps • 24 bit \ 44100 Hz • stereo; 23.12 MB (24 241 165 B)]
09. akiaura - Silk2side.flac [03:23.453; FLAC • 1697 kbps • 24 bit \ 44100 Hz • stereo; 41.18 MB (43 175 597 B)]
10. MRKRYL - Make me.flac [03:32.573; FLAC • 1676 kbps • 24 bit \ 48000 Hz • stereo; 42.49 MB (44 550 432 B)]
11. soul.kai - Restricted.flac [03:58.427; FLAC • 1327 kbps • 24 bit \ 44100 Hz • stereo; 37.72 MB (39 556 535 B)]
Accuracy: -m0
File 01. Sorcer - Haze - 95% MPEG [03:14:30]
File 02. Kairu - Figure - 99% CDDA [03:01:39]
File 03. iSorin - Introspection - 100% CDDA [03:52:63]
File 04. pexØt - Illusions - 100% CDDA [03:12:00]
File 05. nathin - Out of mind - error*1 [02:37:14]
File 06. lutr x tydø - Inspire - 95% MPEG [03:14:71]
File 07. Memphis. - Prohibition - 100% CDDA [02:16:00]
File 08. FLLNÐR - We stay. - error*1 [01:55:68]
File 09. akiaura - Silk2side - error*1 [03:23:34]
File 10. MRKRYL - Make me - error*1 [03:32:43]
File 11. soul.kai - Restricted - error*1 [03:58:32]
————— Summary: —————
These tracks looks like CDDA with probability 100%.
*1 File 24 bit not supported
————————————————————————————————————————————————————————————————————————
ANALYZER:
auCDtect: CD records authenticity detector, version 0.8.2
Copyright (c) 2004 Oleg Berngardt. All rights reserved.
Copyright (c) 2004 Alexander Djourik. All rights reserved.
Time elapsed: 1 m 08 s
Log created at June 16, 2018 19:05:03
=== 38475895CC8EB498BC05E8F02342DC119C25AB3AD545952F29144A94DEC88AE6 ===

Скриншоты проверки качества материала

01. Sorcer - Haze
-02. Kairu - Figure
-03. iSorin - Introspection
-04. pexØt - Illusions
-05. nathin - Out of mind
-06. lutr x tydø - Inspire
-07. Memphis. - Prohibition
-08. FLLNÐR - We stay.
-09. akiaura - Silk2side
-10. MRKRYL - Make me
-11. soul.kai - Restricted


[torrentc.info]_t_5575413.torrent
Торрент: Зарегистрирован ·  [ 2018-06-23 01:28 ] ·  4cde980cad4a6fcbb61f61a132cd5b54e092c595

13 KB

Статус: проверено
Скачан: 0 раз
Размер: 290 MB
Оценка: 
(Голосов: 0)
Сказали спасибо: 0  Спасибо
Похожие темы
[Профиль]    [ЛС]
Показать сообщения:    
Ответить на тему

Текущее время: Сегодня 07:22

Часовой пояс: GMT + 7



Вы не можете начинать темы
Вы не можете отвечать на сообщения
Вы не можете редактировать свои сообщения
Вы не можете удалять свои сообщения
Вы не можете голосовать в опросах
Вы не можете прикреплять файлы к сообщениям
Вы можете скачивать файлы