(Black Metal) [CD] Satanic Warmaster - We Are The Worms That Crawl On The Broken Wings Of An Angel (A Compendium Of Past Crimes) - 2017, FLAC (image+.cue), lossless

Ответить на тему
Статистика раздачи [Обновить пиров]
Размер:  500 MB   |    Зарегистрирован:  4 месяца 24 дня   |    Скачан:  0 раз

Полного источника не было: Никогда

 
   
 
 
 
Автор Сообщение

torrentc.info

Создавать темы 21-Июн-2018 21:18

[Цитировать]

Satanic Warmaster / We Are The Worms That Crawl On The Broken Wings Of An Angel (A Compendium Of Past Crimes) (Compilation)
[img=right]https://image.ibb.co/kvBBsy/Satanic_Warmaster_We_Ar..._Cover.jpg[/img]
Жанр: Black Metal
Носитель: CD
Страна-производитель диска (релиза): Finland
Год издания: 2017
Издатель (лейбл): Werewolf Rec.
Номер по каталогу: EVIL 044
Страна исполнителя (группы): Finland
Аудиокодек: FLAC (*.flac)
Тип рипа: image+.cue
Битрейт аудио: lossless
Продолжительность: 1:15:10
Источник (релизер): [MeTaLMaDNeSS.TeaM]
Наличие сканов в содержимом раздачи: да
Треклист:
01. Satan's Race (4:13)
02. Hold On To Your Dreams (5:42)
03. March Of The Legion Werwolf (2:11)
04. Six Million Tears (3:42)
05. Taistelukenttien Kärsimykset (0:22)
06. A Hymn For The Black Empire (4:09)
07. The Chant Of The Barbarian Wolves (6:47)
08. Intro (2:58)
09. Nameless Sacrifice (5:25)
10. Dead Light Of A Lost Star (6:56)
11. Massacre (4:07)
12. Where Eternity Awaits (7:59)
13. The Burning Eyes Of The Werewolf (5:12)
14. The Majesty Of Wampyric Blood (6:56)
15. Lords And Tyrants (5:15)
16. Black Metal Death (3:16)

Info

Compilation of all the splits except the ones with Archgoat, Vothana and Clandestine Blaze.

Лог создания рипа

Exact Audio Copy V1.3 from 2. September 2016
EAC extraction logfile from 18. December 2017, 16:35
Satanic Warmaster / We Are The Worms That Crawl On The Broken Wings Of An Angel (A Compendium Of Past Crimes)
Used drive : PLEXTOR DVDR PX-891SA Adapter: 1 ID: 0
Read mode : SecureUtilize accurate stream : YesDefeat audio cache : YesMake use of C2 pointers : No
Read offset correction : 6Overread into Lead-In and Lead-Out : NoFill up missing offset samples with silence : YesDelete leading and trailing silent blocks : NoNull samples used in CRC calculations : YesUsed interface : Native Win32 interface for Win NT & 2000
Used output format : User Defined EncoderSelected bitrate : 896 kBit/sQuality : HighAdd ID3 tag : NoCommand line compressor : C:\Program Files (x86)\Exact Audio Copy\Flac\flac.exeAdditional command line options : -6 -V %source%
TOC of the extracted CD
Track | Start | Length | Start sector | End sector --------------------------------------------------------- 1 | 0:00.00 | 4:13.20 | 0 | 18994 2 | 4:13.20 | 5:42.23 | 18995 | 44667 3 | 9:55.43 | 2:10.72 | 44668 | 54489 4 | 12:06.40 | 3:42.20 | 54490 | 71159 5 | 15:48.60 | 0:21.71 | 71160 | 72805 6 | 16:10.56 | 4:08.62 | 72806 | 91467 7 | 20:19.43 | 6:47.00 | 91468 | 121992 8 | 27:06.43 | 2:57.44 | 121993 | 135311 9 | 30:04.12 | 5:25.24 | 135312 | 159710 10 | 35:29.36 | 6:56.19 | 159711 | 190929 11 | 42:25.55 | 4:07.36 | 190930 | 209490 12 | 46:33.16 | 7:58.51 | 209491 | 245391 13 | 54:31.67 | 5:11.52 | 245392 | 268768 14 | 59:43.44 | 6:56.16 | 268769 | 299984 15 | 66:39.60 | 5:14.40 | 299985 | 323574 16 | 71:54.25 | 3:15.50 | 323575 | 338249
Range status and errors
Selected range
Filename D:\MeTaLMaDNeSS.TeaM\Satanic Warmaster (FIN) - We Are The Worms That Crawl On The Broken Wings Of An Angel (A Compendium Of Past Crimes)\Satanic Warmaster - We Are The Worms That Crawl On The Broken Wings Of An Angel (A Compendium Of Past Crim
Peak level 100.0 % Extraction speed 9.3 X Range quality 100.0 % Test CRC D3B457CA Copy CRC D3B457CA Copy OK
No errors occurred
AccurateRip summary
Track 1 not present in databaseTrack 2 not present in databaseTrack 3 not present in databaseTrack 4 not present in databaseTrack 5 not present in databaseTrack 6 not present in databaseTrack 7 not present in databaseTrack 8 not present in databaseTrack 9 not present in databaseTrack 10 not present in databaseTrack 11 not present in databaseTrack 12 not present in databaseTrack 13 not present in databaseTrack 14 not present in databaseTrack 15 not present in databaseTrack 16 not present in database
None of the tracks are present in the AccurateRip database
End of status report
---- CUETools DB Plugin V2.1.6
[CTDB TOCID: srPiRAJRK2vUUS7stGebhZcd14c-] foundSubmit result: srPiRAJRK2vUUS7stGebhZcd14c- has been confirmedTrack | CTDB Status 1 | (1/1) Accurately ripped 2 | (1/1) Accurately ripped 3 | (1/1) Accurately ripped 4 | (1/1) Accurately ripped 5 | (1/1) Accurately ripped 6 | (1/1) Accurately ripped 7 | (1/1) Accurately ripped 8 | (1/1) Accurately ripped 9 | (1/1) Accurately ripped 10 | (1/1) Accurately ripped 11 | (1/1) Accurately ripped 12 | (1/1) Accurately ripped 13 | (1/1) Accurately ripped 14 | (1/1) Accurately ripped 15 | (1/1) Accurately ripped 16 | (1/1) Accurately ripped
==== Log checksum 9FCE41FF7628FBA2BE616340F8C99FF1F85AE3CB4243955D7E6E9E601C2256C8 ====
-


[torrentc.info]_t_5576127.torrent
Торрент: Зарегистрирован ·  [ 2018-06-21 21:15 ] ·  fc0058638f66650e53676adbd76e6b1863790bca

21 KB

Статус: проверено
Скачан: 0 раз
Размер: 500 MB
Оценка: 
(Голосов: 0)
Сказали спасибо: 0  Спасибо
Похожие темы
[Профиль]    [ЛС]
Показать сообщения:    
Ответить на тему

Текущее время: Сегодня 17:03

Часовой пояс: GMT + 7



Вы не можете начинать темы
Вы не можете отвечать на сообщения
Вы не можете редактировать свои сообщения
Вы не можете удалять свои сообщения
Вы не можете голосовать в опросах
Вы не можете прикреплять файлы к сообщениям
Вы можете скачивать файлы