Денис Майданов. Полжизни в пути. Юбилейный концерт в Кремле 2018.06.11 [2016, Pop, HDTV, 1080i]

Ответить на тему
Статистика раздачи [Обновить пиров]
Размер:  10.14 GB   |    Зарегистрирован:  1 месяц   |    Скачан:  0 раз

Полного источника не было: Никогда

 
   
 
 
 
Автор Сообщение

torrentc.info

Создавать темы 21-Июн-2018 00:14

[Цитировать]

Денис Майданов. Полжизни в пути. Юбилейный концерт в Кремле 2018.06.11
Жанр: Pop
Продолжительность: 01:50:00
Год выхода: 2016
Описание: Знаменитый певец пригласит зрителей на творческий и личный праздник - юбилей. В этот вечер на Кремлевской сцене прозвучат самые популярные песни артиста: "Вечная любовь", "48 часов", "Пролетая над нами", "Территория сердца", "Я возвращаюсь домой", "Ничего не жаль", "36,6". Музыкальные поздравления своему другу в этот вечер преподнесут Филипп Киркоров, Лолита, Николай Басков, Татьяна Буланова, Александр Буйнов, Александр Маршал, Сергей Трофимов, Олег Газманов, "Хор Турецкого".
Треклист:
01. Денис Майданов - Вечная любовь
02. Денис Майданов - 48 часов
03. Денис Майданов - Пролетая над нами
04. Денис Майданов и Лолита - Территория сердца
05. Денис Майданов - Я возвращаюсь домой
06. Денис Майданов - Ничего не жаль
07. Денис Майданов - 36.6
08. Денис Майданов - Время-наркотик
09. Хор Турецкого - С тобой и навсегда
10. Николай Басков - Рядом с тобой
11. Филипп Киркоров - Акапелла души
12. Татьяна Буланова - Это я
13. Глеб Матвейчук - Я буду целовать тебя всю ночь
14. Михаил Шуфутинский - Как же быть с любовью
15. Александр Буйнов И Дмитрий Дюжев - Песня О Хорошем
16. Денис Майданов - Родина
17. Денис Майданов - Флаг моего государства
18. Денис Майданов и группа "Баян Микс" - Мы с тобой одной крови
19. Александр Маршал - Глубина (из к/ф. Автономка)
20. Денис Майданов, Олег Газманов, Сергей Трофимов, Александр Маршал - Бывший подъесаул
21. Денис Майданов Кто такие РУССКИЕ
22. Денис Майданов, Офицеры группы "Альфа" - Будем жить, старина! (из к/ф Братаны)
23. Денис Майданов, Олег Газманов - Мама
24. Денис Майданов и Сергей Трофимов - Жена
25. Денис Майданов И Наташа Майданова — Любимый Мой, Любимая
26. Денис Майданов и Влада Майданова - Дом
Качество: HDTV
Разрешение видео/развертка: 1080i
Формат файла: TS
Видео кодек: H.264
Аудио кодек: MP2
Видео: H264; 1920x1080 (16:9); 25.000 fps; ~12.3 Mb/s
Аудио: MPEG Audio 48000Hz stereo 192 Кбит/сек

Отчёт MediaInfo / BDInfo

GeneralID : 1 (0x1)Complete name : F:\Behold TV 222\Денис Майданов. Полжизни в пути.. Юбилейный концерт в Кремле 2018.06.11.tsFormat : MPEG-TSFile size : 10.1 GiBDuration : 1 h 50 minOverall bit rate mode : VariableOverall bit rate : 13.1 Mb/s
VideoID : 201 (0xC9)Menu ID : 2201 (0x899)Format : AVCFormat/Info : Advanced Video CodecFormat profile : High@L4Format settings : CABAC / 4 Ref FramesFormat settings, CABAC : YesFormat settings, RefFrames : 4 framesCodec ID : 27Duration : 1 h 50 minBit rate : 12.3 Mb/sWidth : 1 920 pixelsHeight : 1 080 pixelsDisplay aspect ratio : 16:9Frame rate : 25.000 FPSStandard : ComponentColor space : YUVChroma subsampling : 4:2:0Bit depth : 8 bitsScan type : InterlacedScan type, store method : Separated fieldsScan order : Top Field FirstBits/(Pixel*Frame) : 0.237Stream size : 9.49 GiB (94%)Color range : LimitedColor primaries : BT.709Transfer characteristics : BT.709Matrix coefficients : BT.709
AudioID : 301 (0x12D)Menu ID : 2201 (0x899)Format : MPEG AudioFormat version : Version 1Format profile : Layer 2Codec ID : 3Duration : 1 h 50 minBit rate mode : ConstantBit rate : 192 kb/sChannel(s) : 2 channelsSampling rate : 48.0 kHzCompression mode : LossyStream size : 152 MiB (1%)Language : Russian

Скриншоты






[torrentc.info]_t_5573408.torrent
Торрент: Зарегистрирован ·  [ 2018-06-21 00:13 ] ·  1a5be4fa8b29d88bf73081bdc5cf23c291d1e3b4

51 KB

Статус: проверено
Скачан: 0 раз
Размер: 10.14 GB
Оценка: 
(Голосов: 0)
Сказали спасибо: 0  Спасибо
Похожие темы
[Профиль]    [ЛС]
Показать сообщения:    
Ответить на тему

Текущее время: Сегодня 22:36

Часовой пояс: GMT + 7



Вы не можете начинать темы
Вы не можете отвечать на сообщения
Вы не можете редактировать свои сообщения
Вы не можете удалять свои сообщения
Вы не можете голосовать в опросах
Вы не можете прикреплять файлы к сообщениям
Вы можете скачивать файлы