(Psychedelic / Alternative) [CD] Circle - Leviatan - 2014, FLAC (tracks+.cue), lossless

Ответить на тему
Статистика раздачи [Обновить пиров]
Размер:  290 MB   |    Зарегистрирован:  5 месяцев 23 дня   |    Скачан:  0 раз

Полного источника не было: Никогда

 
   
 
 
 
Автор Сообщение

torrentc.info

Создавать темы 16-Июн-2018 23:32

[Цитировать]

Circle - Leviatan
[img=right]https://c.radikal.ru/c21/1806/a1/6353736ef633.jpg[/img]
Жанр: Psychedelic / Alternative
Носитель: CD
Год выхода диска: 2014
Страна: Finland
Производитель диска: Ektro Records / EKTRO-109
Аудио кодек: FLAC
Тип рипа: tracks+.cue
Битрейт аудио: lossless
Продолжительность: 46:04
Наличие сканов в содержимом раздачи:
Трэклист:
01. Kuohu (6:14)
02. Huone (5:21)
03. Protectorate (6:30)
04. Post-Kapitalismus (3:47)
05. Rakeita (4:38)
06. Hiekkaristi (5:13)
07. Haavat (4:52)
08. Valley (5:44)
09. Viaton (3:42)
Состав:
- Janne Westerlund / Guitars, Vocals
- Jussi Lehtisalo / Bass, Vocals
- Tomi Leppänen / Drums
- Julius Jääskeläinen / Guitar
- Pekka Jääskeläinen / Guitar
- Mika Rättö / Vocals, Keyboards, Percussion
Доп. информация: http://www.progarchives.com/artist.asp?id=3051

Отчёт EAC

Exact Audio Copy V1.3 from 2. September 2016
EAC extraction logfile from 6. June 2018, 15:11
Circle / Leviatan
Used drive : TSSTcorpCD/DVDW SH-S182M Adapter: 1 ID: 0
Read mode : SecureUtilize accurate stream : YesDefeat audio cache : YesMake use of C2 pointers : No
Read offset correction : 6Overread into Lead-In and Lead-Out : NoFill up missing offset samples with silence : YesDelete leading and trailing silent blocks : NoNull samples used in CRC calculations : YesUsed interface : Installed external ASPI interfaceGap handling : Appended to previous track
Used output format : User Defined EncoderSelected bitrate : 32 kBit/sQuality : LowAdd ID3 tag : NoCommand line compressor : C:\Program Files\Exact Audio Copy\Flac\flac.exeAdditional command line options : -8 -V -T "ARTIST=%artist%" -T "TITLE=%title%" -T "ALBUM=%albumtitle%" -T "DATE=%year%" -T "TRACKNUMBER=%tracknr%" -T "GENRE=%genre%" -T "COMMENT=EAC FLAC -8" %source%
TOC of the extracted CD
Track | Start | Length | Start sector | End sector --------------------------------------------------------- 1 | 0:00.00 | 6:14.02 | 0 | 28051 2 | 6:14.02 | 5:21.34 | 28052 | 52160 3 | 11:35.36 | 6:30.12 | 52161 | 81422 4 | 18:05.48 | 3:47.48 | 81423 | 98495 5 | 21:53.21 | 4:38.37 | 98496 | 119382 6 | 26:31.58 | 5:13.65 | 119383 | 142922 7 | 31:45.48 | 4:52.23 | 142923 | 164845 8 | 36:37.71 | 5:44.19 | 164846 | 190664 9 | 42:22.15 | 3:42.36 | 190665 | 207350
Track 1
Filename C:\Program Files\BitComet\Downloads\Circle - Leviatan (2014)\01 - Kuohu.wav
Pre-gap length 0:00:02.00
Peak level 96.3 % Extraction speed 5.2 X Track quality 100.0 % Test CRC B7C0E511 Copy CRC B7C0E511 Accurately ripped (confidence 5) [C6A981E9] (AR v2) Copy OK
Track 2
Filename C:\Program Files\BitComet\Downloads\Circle - Leviatan (2014)\02 - Huone.wav
Peak level 96.8 % Extraction speed 5.7 X Track quality 100.0 % Test CRC 824918B1 Copy CRC 824918B1 Accurately ripped (confidence 5) [52F17CBE] (AR v2) Copy OK
Track 3
Filename C:\Program Files\BitComet\Downloads\Circle - Leviatan (2014)\03 - Protectorate.wav
Peak level 96.7 % Extraction speed 6.4 X Track quality 100.0 % Test CRC 124FC0F5 Copy CRC 124FC0F5 Accurately ripped (confidence 5) [2A82CD10] (AR v2) Copy OK
Track 4
Filename C:\Program Files\BitComet\Downloads\Circle - Leviatan (2014)\04 - Post-Kapitalismus.wav
Peak level 96.6 % Extraction speed 6.4 X Track quality 100.0 % Test CRC FE8FF6ED Copy CRC FE8FF6ED Accurately ripped (confidence 5) [76DDC149] (AR v2) Copy OK
Track 5
Filename C:\Program Files\BitComet\Downloads\Circle - Leviatan (2014)\05 - Rakeita.wav
Peak level 96.7 % Extraction speed 6.9 X Track quality 100.0 % Test CRC 0430F962 Copy CRC 0430F962 Accurately ripped (confidence 5) [CCA91EEF] (AR v2) Copy OK
Track 6
Filename C:\Program Files\BitComet\Downloads\Circle - Leviatan (2014)\06 - Hiekkaristi.wav
Peak level 96.6 % Extraction speed 7.3 X Track quality 100.0 % Test CRC 01127A01 Copy CRC 01127A01 Accurately ripped (confidence 5) [67000055] (AR v2) Copy OK
Track 7
Filename C:\Program Files\BitComet\Downloads\Circle - Leviatan (2014)\07 - Haavat.wav
Peak level 96.7 % Extraction speed 7.6 X Track quality 100.0 % Test CRC 2ADA2B7A Copy CRC 2ADA2B7A Accurately ripped (confidence 5) [979190FF] (AR v2) Copy OK
Track 8
Filename C:\Program Files\BitComet\Downloads\Circle - Leviatan (2014)\08 - Valley.wav
Peak level 96.8 % Extraction speed 7.4 X Track quality 99.9 % Test CRC 5CA2FCBB Copy CRC 5CA2FCBB Accurately ripped (confidence 5) [F33C1051] (AR v2) Copy OK
Track 9
Filename C:\Program Files\BitComet\Downloads\Circle - Leviatan (2014)\09 - Viaton.wav
Peak level 96.5 % Extraction speed 7.8 X Track quality 100.0 % Test CRC 051C735A Copy CRC 051C735A Accurately ripped (confidence 5) [E1DD31D9] (AR v2) Copy OK
All tracks accurately ripped
No errors occurred
End of status report
---- CUETools DB Plugin V2.1.6
[CTDB TOCID: BC3nxLnyysjF_Ajl9iHlT3xZvb8-] foundSubmit result: BC3nxLnyysjF_Ajl9iHlT3xZvb8- has been confirmedTrack | CTDB Status 1 | (6/6) Accurately ripped 2 | (6/6) Accurately ripped 3 | (6/6) Accurately ripped 4 | (6/6) Accurately ripped 5 | (6/6) Accurately ripped 6 | (6/6) Accurately ripped 7 | (6/6) Accurately ripped 8 | (6/6) Accurately ripped 9 | (6/6) Accurately ripped
==== Log checksum 35293CDBD89584EAE3B1D5D7A2FC32254FA1514650C149B717CF476E807B69B1 ====

.cue

REM GENRE RockREM DATE 2014REM DISCID 890ACC09REM COMMENT "ExactAudioCopy v1.3"PERFORMER "Circle"TITLE "Leviatan"REM COMPOSER "Circle"FILE "01 - Kuohu.wav" WAVE TRACK 01 AUDIO TITLE "Kuohu" PERFORMER "Circle" REM COMPOSER "Circle" INDEX 01 00:00:00FILE "02 - Huone.wav" WAVE TRACK 02 AUDIO TITLE "Huone" PERFORMER "Circle" REM COMPOSER "Circle" INDEX 01 00:00:00FILE "03 - Protectorate.wav" WAVE TRACK 03 AUDIO TITLE "Protectorate" PERFORMER "Circle" REM COMPOSER "Circle" INDEX 01 00:00:00FILE "04 - Post-Kapitalismus.wav" WAVE TRACK 04 AUDIO TITLE "Post-Kapitalismus" PERFORMER "Circle" REM COMPOSER "Circle" INDEX 01 00:00:00FILE "05 - Rakeita.wav" WAVE TRACK 05 AUDIO TITLE "Rakeita" PERFORMER "Circle" REM COMPOSER "Circle" INDEX 01 00:00:00FILE "06 - Hiekkaristi.wav" WAVE TRACK 06 AUDIO TITLE "Hiekkaristi" PERFORMER "Circle" REM COMPOSER "Circle" INDEX 01 00:00:00FILE "07 - Haavat.wav" WAVE TRACK 07 AUDIO TITLE "Haavat" PERFORMER "Circle" REM COMPOSER "Circle" INDEX 01 00:00:00FILE "08 - Valley.wav" WAVE TRACK 08 AUDIO TITLE "Valley" PERFORMER "Circle" REM COMPOSER "Circle" INDEX 01 00:00:00FILE "09 - Viaton.wav" WAVE TRACK 09 AUDIO TITLE "Viaton" PERFORMER "Circle" REM COMPOSER "Circle" INDEX 01 00:00:00
Источник: Torrentc знакомый (приват)


[torrentc.info]_t_5571777.torrent
Торрент: Зарегистрирован ·  [ 2018-06-16 23:30 ] ·  d4fd68bebd66b515ad016fe7ff86eb3a86392a71

25 KB

Статус: проверено
Скачан: 0 раз
Размер: 290 MB
Оценка: 
(Голосов: 0)
Сказали спасибо: 0  Спасибо
Похожие темы
[Профиль]    [ЛС]
Показать сообщения:    
Ответить на тему

Текущее время: Сегодня 18:15

Часовой пояс: GMT + 7



Вы не можете начинать темы
Вы не можете отвечать на сообщения
Вы не можете редактировать свои сообщения
Вы не можете удалять свои сообщения
Вы не можете голосовать в опросах
Вы не можете прикреплять файлы к сообщениям
Вы можете скачивать файлы