[TR24][OF] Amanda Somerville\'s Trillium - Tectonic - 2018 (Symphonic Metal, Melodic Power Metal)

Ответить на тему
Статистика раздачи [Обновить пиров]
Размер:  529 MB   |    Зарегистрирован:  3 месяца 6 дней   |    Скачан:  0 раз

Полного источника не было: Никогда

 
   
 
 
 
Автор Сообщение

torrentc.info

Создавать темы 15-Июн-2018 23:17

[Цитировать]

Amanda Somerville's Trillium - Tectonic Формат файла записи/Источник записи: [TR24][OF]
Наличие водяных знаков: Нет
Год издания/переиздания диска: 2018
Жанр: Symphonic Metal, Melodic Power Metal
Издатель (лейбл): Frontiers Records s.r.l.
Продолжительность: 44:08
Наличие сканов в содержимом раздачи: Только обложка альбома
Треклист:
01. Time To Shine (4:23)
02. Stand Up (4:01)
03. Full Speed Ahead (4:03)
04. Hit Me (4:34)
05. Fighting Fate (4:36)
06. Nocturna (4:25)
07. Fatal Mistake (4:59)
08. Shards (4:45)
09. Cliché Freak Show (4:07)
10. Eternal Spring (4:15)
 

Несколько слов на английском

Is it any wonder that it has taken vocalist Amanda Somerville seven years to return to her Trillium project? She's been busy contributing her voice to ninety percent of European symphonic melodic metal bands, from After Forever to Xandria. But now she returns to her three-petaled flower musical project with Tectonic, with her husband, guitarist Sander Gommans, by her side.
Once more Ms Somerville returns to the genre she knows best, melodic heavy metal with symphonic synth embellishment. Expanding that a tad more, you can expect mixed pacing, with tempos from steady heavy metal to swift power metal. Also, the rhythm section delivers plenty of rock groove, and the bass line is significantly heard in most songs. Of course, perhaps the sin qua non of true heavy metal, there are plenty of crisp and soaring guitar solos from Gommans, but also Trillium live veteran, Paul Owsinski. Completing the circle, as a vocalist, Ms Somerville has some significant range, singing melodic with both power and restraint. There's always clarity, and never a breath of straining in her presentation.
Here's a few song highlights to pique your interest. Something of personal inspiration comes with Time To Shine and Stand Up, both rather uplifting metal songs. The former features a light vocal breakdown for Somerville after the mid point. The latter song offers bracing riffs, rock groove, and a killer chorus. With Nocturna, you get something of a heavy metal anthem, where light parts, often with the vocals, intersect with more heavy parts. I also thought, through the vocals, the song had an almost operatic feeling. Within Shards, you'll hear almost all those aforementioned musical elements mentioned in the previous paragraph. But most notable is the keen rock groove and the bristling guitar work. The album closes with a simple symphonic ballad where Somerville sings mostly over piano, sending chills down your spine. All said, Tectonic is quintessential Trillium, with Amanda Somerville once more stunning us with her beautiful voice in the context of the symphonic melodic metal she loves. Easily recommended.
-Формат файла: FLAC (*.flac)
Тип рипа: tracks
Разрядность: 24/44,1
Формат файла: PCM
Количество каналов: 2.0

Лог проверки качества

foobar2000 1.3.9 / Dynamic Range Meter 1.1.1log date: 2018-06-08 23:26:38
--------------------------------------------------------------------------------Analyzed: Amanda Somerville's Trillium / Tectonic--------------------------------------------------------------------------------
DR Peak RMS Duration Track--------------------------------------------------------------------------------DR8 -0.10 dB -8.95 dB 4:23 01-Time To ShineDR8 -0.10 dB -8.99 dB 4:01 02-Stand UpDR7 -0.10 dB -8.22 dB 4:03 03-Full Speed AheadDR8 -0.10 dB -9.25 dB 4:34 04-Hit MeDR8 -0.10 dB -10.08 dB 4:36 05-Fighting FateDR8 -0.10 dB -10.01 dB 4:25 06-NocturnaDR9 -0.10 dB -10.81 dB 4:59 07-Fatal MistakeDR8 -0.10 dB -9.42 dB 4:45 08-ShardsDR8 -0.10 dB -10.20 dB 4:07 09-Cliché Freak ShowDR9 -0.10 dB -12.58 dB 4:15 10-Eternal Spring--------------------------------------------------------------------------------
Number of tracks: 10Official DR value: DR8
Samplerate: 44100 HzChannels: 2Bits per sample: 24Bitrate: 1486 kbpsCodec: FLAC================================================================================
Источник: qobuz.com


[torrentc.info]_t_5572182.torrent
Торрент: Зарегистрирован ·  [ 2018-06-15 23:16 ] ·  7d7eba137804f489da519c542748a7479157dd58

11 KB

Статус: проверено
Скачан: 0 раз
Размер: 529 MB
Оценка: 
(Голосов: 0)
Сказали спасибо: 0  Спасибо
Похожие темы
[Профиль]    [ЛС]
Показать сообщения:    
Ответить на тему

Текущее время: Сегодня 06:30

Часовой пояс: GMT + 7



Вы не можете начинать темы
Вы не можете отвечать на сообщения
Вы не можете редактировать свои сообщения
Вы не можете удалять свои сообщения
Вы не можете голосовать в опросах
Вы не можете прикреплять файлы к сообщениям
Вы можете скачивать файлы