(Avant-prog, Math rock) [CD] Ni — Les Insurges de Romilly — 2015; FLAC (image+.cue), lossless

Ответить на тему
Статистика раздачи [Обновить пиров]
Размер:  366 MB   |    Зарегистрирован:  2 месяца 9 дней   |    Скачан:  0 раз

Полного источника не было: Никогда

 
   
 
 
 
Автор Сообщение

torrentc.info

Создавать темы 06-Июн-2018 23:10

[Цитировать]

ni — Les Insurgés de Romilly (2015) Жанр: Avant-prog, Math rock
Страна исполнителя: France
Год выхода диска: 2015
Производитель диска: France (Dur et Doux)
Номер по каталогу: DD-010
Аудио кодек: FLAC
Тип рипа: image+.cue
Битрейт аудио: lossless
Продолжительность: 01:14:00
Наличие сканов в содержимом раздачи: да
Источник: Torrentc моя коллекция CD
Треклист:
01. Bouif [04:12.960]
02. Cuistre [04:51.693]
03. Rodomont [05:52.560]
04. Butor [05:44.907]
05. Marpaud [03:48.333]
06. Flaquadin [04:08.280]
07. Gringuenaudes [05:37.347]
08. Torfesor [39:42.147]
Line-up:
Anthony Béard — guitar, vocals
François Mignot — guitar, vocals
Benoit Lecomte — bass, vocals
Nicolas Bernollin — drums

Отчёт EAC

Exact Audio Copy V1.3 from 2. September 2016
Отчёт EAC об извлечении, выполненном 31. мая 2018, 18:11
NI / Les Insurgés de Romilly
Дисковод: TSSTcorpCDDVDW SH-224DB Adapter: 1 ID: 0
Режим чтения : ДостоверностьИспользование точного потока : ДаОтключение кэша аудио : ДаИспользование указателей C2 : Нет
Коррекция смещения при чтении : 6Способность читать области Lead-in и Lead-out : НетЗаполнение пропущенных сэмплов тишиной : ДаУдаление блоков с тишиной в начале и конце : НетПри вычислениях CRC использовались нулевые сэмплы : ДаИнтерфейс : Встроенный Win32-интерфейс для Win NT/2000
Выходной формат : Внутренние WAV-операцииФормат файла сэмплов : 44.100 Гц; 16 бит; стерео
TOC извлечённого CD
Трек | Старт | Длительность | Начальный сектор | Конечный сектор --------------------------------------------------------------------- 1 | 0:00.00 | 4:12.72 | 0 | 18971 2 | 4:12.72 | 4:51.52 | 18972 | 40848 3 | 9:04.49 | 5:54.25 | 40849 | 67423 4 | 14:58.74 | 5:44.68 | 67424 | 93291 5 | 20:43.67 | 3:48.25 | 93292 | 110416 6 | 24:32.17 | 4:08.21 | 110417 | 129037 7 | 28:40.38 | 5:37.26 | 129038 | 154338 8 | 34:17.64 | 39:42.11 | 154339 | 332999
Характеристики диапазона извлечения и сообщения об ошибках
Выбранный диапазон
Имя файла D:\TEMP\NI - 2015 - Les Insurges de Romilly [Dur et Doux, DD-010].wav
Пиковый уровень 100.0 % Скорость извлечения 8.1 X Качество диапазона 100.0 % CRC теста 590C09FA CRC копии 590C09FA Копирование... OK
Ошибок не произошло
AccurateRip: сводка
Трек 1 : извлечено точно (доверие 2) [76F70C2D] (AR v2)Трек 2 : извлечено точно (доверие 2) [6B76739B] (AR v2)Трек 3 : извлечено точно (доверие 2) [FD6C7CEC] (AR v2)Трек 4 : извлечено точно (доверие 2) [CE6ABBA8] (AR v2)Трек 5 : извлечено точно (доверие 2) [F2275679] (AR v2)Трек 6 : извлечено точно (доверие 2) [B7A34B4F] (AR v2)Трек 7 : извлечено точно (доверие 2) [28791DAE] (AR v2)Трек 8 : извлечено точно (доверие 2) [4671151C] (AR v2)
Все треки извлечены точно
Конец отчёта
==== Контрольная сумма отчёта 4ED1D9E02F75464CB5DAC857897397BDB16DEF6735827ED6F4DFAC71D088271D ====

CUE-файл для проигрывания (для WAV также имеется)

REM GENRE "Progressive Rock/Avant-Prog; Math Rock"REM DATE 2015REM DISCID 5D115808REM COMMENT "ExactAudioCopy v1.3"PERFORMER "NI"TITLE "Les Insurgés de Romilly"FILE "NI - 2015 - Les Insurges de Romilly [Dur et Doux, DD-010].flac" WAVE TRACK 01 AUDIO TITLE "Bouif" PERFORMER "NI" INDEX 01 00:00:00 TRACK 02 AUDIO TITLE "Cuistre" PERFORMER "NI" INDEX 01 04:12:72 TRACK 03 AUDIO TITLE "Rodomont" PERFORMER "NI" INDEX 01 09:04:49 TRACK 04 AUDIO TITLE "Butor" PERFORMER "NI" INDEX 00 14:57:16 INDEX 01 14:58:74 INDEX 02 19:59:58 TRACK 05 AUDIO TITLE "Marpaud" PERFORMER "NI" INDEX 01 20:43:67 TRACK 06 AUDIO TITLE "Flaquadin" PERFORMER "NI" INDEX 01 24:32:17 TRACK 07 AUDIO TITLE "Gringuenaudes" PERFORMER "NI" INDEX 01 28:40:38 TRACK 08 AUDIO TITLE "Torfesor" PERFORMER "NI" INDEX 01 34:17:64

Матрица CD

Динамический диапазон

foobar2000 1.3.17 / Dynamic Range Meter 1.1.1log date: 2018-05-31 18:59:35
--------------------------------------------------------------------------------Analyzed: NI / Les Insurgés de Romilly--------------------------------------------------------------------------------
DR Peak RMS Duration Track--------------------------------------------------------------------------------DR8 -0.09 dB -10.18 dB 4:13 01-BouifDR8 -0.15 dB -9.43 dB 4:52 02-CuistreDR8 -0.14 dB -10.30 dB 5:54 03-RodomontDR8 -0.14 dB -9.56 dB 5:45 04-ButorDR9 -0.06 dB -9.95 dB 3:48 05-MarpaudDR8 -0.03 dB -9.64 dB 4:08 06-FlaquadinDR8 -0.09 dB -9.90 dB 5:37 07-GringuenaudesDR11 0.00 dB -18.20 dB 39:42 08-Torfesor--------------------------------------------------------------------------------
Number of tracks: 8Official DR value: DR8
Samplerate: 44100 HzChannels: 2Bits per sample: 16Bitrate: 589 kbpsCodec: FLAC================================================================================

-
Краткая информацияProgArchivesПока единственный полноформатный альбом в дискографии авант-прог/матрокового квартета (есть ещё два EP). В своё время выкладывался здесь в веб-формате. Конечно, в последнем треке около шести минут музыки и дальше более получаса тишины, чтобы на последних секундах что-то проговорить, — это нечто!
В 2018 объединились с другой подобной группой PoiL, и получившийся «большой, массовый квартет» выпустил диск “Bran Coucou”.
-

Мои раздачи в разделах “Jazz Fusion”, “Отечественный джаз” и “Avant-Garde Jazz, Free Improvisation”

[Jazz Fusion]
AHVENLAHTI, Olli: “Bandstand” (1975), “The Poet” (1976)
CATALYST: The Complete Recordings Vol. 1 & 2
DE BRUYNE, Koen: “Here Comes The Crazy Man!” (1974)
FORTY SEVEN TIMES ITS OWN WEIGHT: “Cumulo Nimbus” (1975)
Henry LOWTHER Band: “Child Song” (1970)
KASZAKŐ: “Édenkert” (1983)
KEYBOARD CIRCLE, THE: “1976” (1976)
LAFERRIÈRE, Yves: “Yves Laferrière” (1978)
LIEVONEN, Make: “Make Lievonen” (1977)
MAJOR SURGERY: “The First Cut” (1976)
MALOO: “Spaces Of Reflection” (1976), “All About The Things” (1977–78)
Miho Kei & JAZZ ELEVEN: “Kokezaru Kumikyoku” (1971)
PLACEBO (Marc Moulin): “Ball Of Eyes” (1971), “1973” (1973), “Placebo” (1974)
SOLIS LACUS: “Solis Lacus” (1975)
TEE & COMPANY: “Sonnet”/“Dragon Garden”/“Spanish Flower” (1978)
WAGNON, Marc: “Shadowlines” (1988), “An Afterthought” (1999), “Conjunction” (2001), “Earth Is A Cruel Master” (2010)
[Avant-Garde Jazz, Free Improvisation]
COLLECTIF MU: “Don Quichotte” (1997)
Keith TIPPETT Group, The: “You Are Here... I Am There” (1970), “Dedicated To You, But You Weren’t Listening” (1971)
PERCEPTION (Yochk’o Seffer,...): “Perception” (1971), “Perception & Friends” (1972), “Mestari” (1973)
[Отечественный джаз]
ГУНЕШ: “Гунеш” (1980)
Зацените!

Мои раздачи в жанре Прог-Электроники и близких к ней

AGUILAR, Ildefonso: “Erósion” (1978)
BESOMBES, Philippe: “Libra” (1975), “Pôle” (1975), “Ceci Est Celà” (1979)
BLAKE, Tim: “Crystal Machine” (1977), “Blake’s New Jerusalem” (1978)
COSMIC GROUND: “Cosmic Ground” (2014)
COZMIC CORRIDORS: “Cozmic Corridors” (1973)
ELEKTRIKTUS: “Electronic Mind Waves” (1976)
GALACTIC EXPLORERS: “Epitaph For Venus” (1972)
GRANCHER, Philippe: “3000 Miles Away” (1975)
GUÉRIN, Jean: “Tacet” (1971)
JONATHAN: “Jonathan” (1978)
KARG, Jürgen: “Elektronische Mythen” (1977)
KLUSTER (Moebius/Roedelius/Schnitzler): “Klорfzeichen” (1970), “Zwеi Ostеrеi” & “Eruрtiоn” (1971)
KOSUGI, Takehisa: “Catch-Wave” (1975)
MOOLAH: “Woe Ye Demons Possessed” (1974)
NAZGÛL, THE: “The Nazgûl” (1975)
OSE: “Adonia” (1978)
SCHULZE, Klaus: “Shadowlands” (2013)
SEESSELBERG, Eckhart & Wolf-J.: “Synthetik 1” (1973)
SPACECRAFT: “Paradoxe” (1978)
SYRINX: “Syrinx” (1970), “Long Lost Relatives” (1971)
TAKADA, Midori: “Through The Looking Glass” (1983)
VANGELIS: “Heaven And Hell” (1975), “Albedo 0.39” (1976), “Spiral” (1977), “Beaubourg” (1978), “Direct” (1988)
VANGELIS: “Delectus: The Polydor & Vertigo Recordings, 1973–1985” (2017, 13CD box)
VIAN, Patrick: “Bruits et Temps Analogues” (1976)
ZANOV: “Virtual Future” (2014), “Open Worlds” (2016)
ZANOV: “Green Ray” (1976), “Moebius 256 301” (1977), “In Course Of Time” (1982)
Z / Bernard SZajner: “Visions Of Dune” (1979)
Зацените!
-
Всех благодарю за внимание!


[torrentc.info]_t_5569641.torrent
Торрент: Зарегистрирован ·  [ 2018-06-06 23:09 ] ·  4f1ade2f044046d0d6ce6091b3ffad8edebc867f

16 KB

Статус: проверено
Скачан: 0 раз
Размер: 366 MB
Оценка: 
(Голосов: 0)
Сказали спасибо: 0  Спасибо
Похожие темы
[Профиль]    [ЛС]
Показать сообщения:    
Ответить на тему

Текущее время: Сегодня 21:01

Часовой пояс: GMT + 7



Вы не можете начинать темы
Вы не можете отвечать на сообщения
Вы не можете редактировать свои сообщения
Вы не можете удалять свои сообщения
Вы не можете голосовать в опросах
Вы не можете прикреплять файлы к сообщениям
Вы можете скачивать файлы