[iPhone] Двенадцать королевств / Juuni Kokki / The Twelve Kingdoms (Кобаяси Цунэо / Kobayashi Tsuneo) (Сезон 1 из 1, 1-45 из 45 серий) [2002, Приключенческий мультсериал, BDRip 480x368] Rus, Jap + Sub (Rus)

Ответить на тему
Статистика раздачи [Обновить пиров]
Размер:  7.97 GB   |    Зарегистрирован:  6 месяцев 20 дней   |    Скачан:  0 раз

Полного источника не было: Никогда

 
   
 
 
 
Автор Сообщение

torrentc.info

Создавать темы 22-Май-2018 10:28

[Цитировать]

Двенадцать королевств / Juuni Kokki / The Twelve Kingdoms
-Год выхода: 2002
Страна: Япония
Жанр: Экшн, Приключения, Фэнтези, Драма
Продолжительность: 00:25:00
Перевод : Профессиональный (полное дублирование)
Субтитры: Русские ( Перевод: TEXHOMar, unvasily )
Количество серий: 45 из 45-Режиссёр: Кобаяси Цунэо / Kobayashi Tsuneo-Описание:
Основано на романах Ono Fuyumi.
Она всю жизнь старалась соответствовать чьим-то ожиданиям – быть примерной ученицей, отличницей, старостой класса. Даже рыжие волосы Ёко Накадзима красила, чтобы «быть, как все». Вот только попала 17-летняя девушка на историческую родину, в лежащий рядом с нашим мир Двенадцати Царств – и поняла, что всё было зря. Какой смысл лицемерить, если окружающим ты такая не нужна – встречные пытаются не убить, так ограбить, не ограбить, так сплавить подальше, ибо от непонятных чужаков ничего, кроме беды, не жди. В битве за свою жизнь и истинное предназначение Ёко поняла - надо быть честной и не изменять себе, а коль уж судьба подкидывает тяжкий жребий – все взвесить и решить, принимать его или нет. Ну а если приняла – надо идти до конца…
Мир Двенадцати Царств основан на классической мифологии Древнего Китая и красив той красотой, которой всегда манит загадочный Восток. Горы и леса, города и деревни, крепости и дворцы, бескрайние моря и Земли Бессмертных – все они лишь полотно эпического действия, пронизанного идеями Конфуция и Лао Цзы. Нужно только понять, что в этой чудесной притче боги и демоны, волшебные создания и зверолюди – отражения нас с вами, тех, кому нужно найти свой путь. Ибо «небо и земля не обладают человеколюбием и предоставляют всем живым существам жить собственной жизнью».
© Hollow, World Art-Качество: BDrip
Ссылка на Источник: Torrentc: http://Torrentc/forum/viewtopic.php?t=3758340
Формат файла: *.m4v
Видео кодек: H.264
аудио кодек: ААС
Разрешение: 480х368
Другие параметры видео: 750 Кбит/сек, 23.976 кадр/сек
Аудио 1: 128 Кбит/сек; 2 канала; 48,0 КГц MC Entertainment
Аудио 2: 128 Кбит/сек; 2 канала; 48,0 КГц Original
Вшитая обложка: есть
Доп. теги (режиссёр, актёры и т.д.): прописаны
Телешоу/видеоклип : прописан
Главы: нет
Серия/сезон: прописан-

Список серий

01. 12 Королевств. Тень Луны, Море Тени - Часть 1
02. 12 Королевств. Тень Луны, Море Тени - Часть 2
03. 12 Королевств. Тень Луны, Море Тени - Часть 3
04. 12 Королевств. Тень Луны, Море Тени - Часть 4
05. 12 Королевств. Тень Луны, Море Тени - Часть 5
06. 12 Королевств. Тень Луны, Море Тени - Часть 6
07. 12 Королевств. Тень Луны, Море Тени - Часть 7
08. 12 Королевств. Тень Луны, Море Тени - Часть 8
09. 12 Королевств. Тень Луны, Море Тени - Часть 9
10. 12 Королевств. Тень Луны, Море Тени - Часть 10
11. 12 Королевств. Тень Луны, Море Тени - Часть 11
12. 12 Королевств. Тень Луны, Море Тени - Часть 12
13. 12 Королевств. Тень Луны, Море Тени - Часть последняя
14. 12 Королевств. Тень Луны, Море Тени - Интерлюдия
15. 12 Королевств. Море Ветра, Берег Лабиринта - Часть 1
16. 12 Королевств. Море Ветра, Берег Лабиринта - Часть 2
17. 12 Королевств. Море Ветра, Берег Лабиринта - Часть 3
18. 12 Королевств. Море Ветра, Берег Лабиринта - Часть 4
19. 12 Королевств. Море Ветра, Берег Лабиринта - Часть 5
20. 12 Королевств. Море Ветра, Берег Лабиринта - Часть последняя
21. 12 Королевств. Море Ветра, Берег Лабиринта - Интерлюдия
22. 12 Королевств. Послание
23. 12 Королевств. Путь по ветру, Небо на рассвете - Часть 1
24. 12 Королевств. Путь по ветру, Небо на рассвете - Часть 2
25. 12 Королевств. Путь по ветру, Небо на рассвете - Часть 3
26. 12 Королевств. Путь по ветру, Небо на рассвете - Часть 4
27. 12 Королевств. Путь по ветру, Небо на рассвете - Часть 5
28. 12 Королевств. Путь по ветру, Небо на рассвете - Часть 6
29. 12 Королевств. Путь по ветру, Небо на рассвете - Часть 7
30. 12 Королевств. Путь по ветру, Небо на рассвете - Часть 8
31. 12 Королевств. Путь по ветру, Небо на рассвете - Интерлюдия
32. 12 Королевств. Путь по ветру, Небо на рассвете - Часть 9
33. 12 Королевств. Путь по ветру, Небо на рассвете - Часть 10
34. 12 Королевств. Путь по ветру, Небо на рассвете - Часть 11
35. 12 Королевств. Путь по ветру, Небо на рассвете - Часть 12
36. 12 Королевств. Путь по ветру, Небо на рассвете - Часть 13
37. 12 Королевств. Путь по ветру, Небо на рассвете - Часть 14
38. 12 Королевств. Путь по ветру, Небо на рассвете - Часть 15
39. 12 Королевств. Путь по ветру, Небо на рассвете - Часть последняя
40. 12 Королевств. В лунном свете
41. 12 Королевств. Бог Моря на Востоке, Океан на Западе - Часть 1
42. 12 Королевств. Бог Моря на Востоке, Океан на Западе - Часть 2
43. 12 Королевств. Бог Моря на Востоке, Океан на Западе - Часть 3
44. 12 Королевств. Бог Моря на Востоке, Океан на Западе - Часть последняя
45. 12 Королевств. Бог Моря на Востоке, Океан на Западе - Интерлюдия

MediaInfo

Format : MPEG-4
Codec ID : M4V
File size : 181 MiB
Duration : 25mn 4s
Overall bit rate mode : Variable
Overall bit rate : 1 012 Kbps
Movie name : Тень Луны, Море Тени ч.1 «Shadow of the Moon, The Sea of Shadow vol.1»
Album : Двенадцать королевств «Juuni Kokki»
Part/Position : 1
Part/Total : 1
Track name/Position : 1
Track name/Total : 45
Performer : Двенадцать королевств «Juuni Kokki»
Genre : Animation
Recorded date : 2002
Encoded date : UTC 2012-04-21 07:55:12
Tagged date : UTC 2012-04-24 13:05:00
Writing application : Yamb 2.1.0.0 []http://yamb.unite-video.com]
Cover : Yes
tvsh : Двенадцать королевств «Juuni Kokki»
tvnn : NHK-BS2
tven : Тень Луны, Море Тени ч.1 «Shadow of the Moon, The Sea of Shadow vol.1»
tvsn : 1
tves : 1
sosn : Двенадцать королевств «Juuni Kokki»
desc : 45-серийный анимационный цикл по романам Фуюми Оно - это хроника похождений девушки, попавшей в параллельный мир, который напоминает феодальный Китай.
hdvd : 0
stik : 10
akID : -1
sfID : 0
iTunEXTC : us-tv|TV-PG|400|
iTunMOVI : / / / / directors / / / name / Кобаяси Цунэо / / / producers / / / name / Мацуи Масаси / / / name / Осикири Манё / / / name / Суэкава Кэн / / / name / Хомма Митиюки / / / screenwriters / / / name / Айкава Сё / / / name / Фудзима Сэйя / / / /
Video
ID : 1
Format : AVC
Format/Info : Advanced Video Codec
Format profile : Baseline@L3.0
Format settings, CABAC : No
Format settings, ReFrames : 4 frames
Codec ID : avc1
Codec ID/Info : Advanced Video Coding
Duration : 25mn 1s
Bit rate : 750 Kbps
Maximum bit rate : 7 228 Kbps
Width : 480 pixels
Height : 368 pixels
Display aspect ratio : 4:3
Frame rate mode : Constant
Frame rate : 23.976 fps
Color space : YUV
Chroma subsampling : 4:2:0
Bit depth : 8 bits
Scan type : Progressive
Bits/(Pixel*Frame) : 0.177
Stream size : 134 MiB (74%)
Title : Imported with GPAC 0.4.6-DEV (build 1)
Writing library : x264 core 79 r1342kMod e8501ef
Encoding settings : cabac=0 / ref=4 / deblock=1:1:1 / analyse=0x1:0x111 / me=umh / subme=7 / psy=1 / psy_rd=0.4:0.0 / mixed_ref=0 / me_range=16 / chroma_me=1 / trellis=0 / 8x8dct=0 / cqm=0 / deadzone=21,11 / chroma_qp_offset=-2 / threads=6 / nr=0 / decimate=0 / mbaff=0 / constrained_intra=0 / bframes=0 / wpredp=0 / keyint=250 / keyint_min=25 / scenecut=40 / rc_lookahead=60 / rc=2pass / mbtree=1 / bitrate=750 / ratetol=1.0 / qcomp=0.60 / qpmin=10 / qpmax=51 / qpstep=4 / cplxblur=20.0 / qblur=0.5 / ip_ratio=1.40 / aq=1:0.60
Encoded date : UTC 2012-04-10 11:12:12
Tagged date : UTC 2012-04-21 07:55:22
Audio #1
ID : 2
Format : AAC
Format/Info : Advanced Audio Codec
Format profile : LC
Codec ID : 40
Duration : 25mn 1s
Bit rate mode : Variable
Bit rate : 128 Kbps
Maximum bit rate : 160 Kbps
Channel(s) : 2 channels
Channel positions : Front: L R
Sampling rate : 48.0 KHz
Compression mode : Lossy
Stream size : 22.9 MiB (13%)
Language : Japanese
Encoded date : UTC 2012-04-21 07:55:14
Tagged date : UTC 2012-04-21 07:55:22
Audio #2
ID : 3
Format : AAC
Format/Info : Advanced Audio Codec
Format profile : LC
Codec ID : 40
Duration : 24mn 59s
Bit rate mode : Variable
Bit rate : 125 Kbps
Maximum bit rate : 159 Kbps
Channel(s) : 2 channels
Channel positions : Front: L R
Sampling rate : 48.0 KHz
Compression mode : Lossy
Stream size : 22.4 MiB (12%)
Language : Russian
Encoded date : UTC 2012-04-21 07:55:15
Tagged date : UTC 2012-04-21 07:55:22
Text
ID : 4
Format : Timed text
Muxing mode : sbtl
Codec ID : tx3g
Duration : 25mn 4s
Bit rate mode : Variable
Bit rate : 83 bps
Stream size : 15.3 KiB (0%)
Language : Russian
Encoded date : UTC 2012-04-21 07:55:22
Tagged date : UTC 2012-04-21 07:55:22

Скриншоты



[torrentc.info]_t_4111614.torrent
Торрент: Зарегистрирован ·  [ 2018-05-22 10:28 ] ·  f5c447bcd92548e6d134feb200d5b958fab9486e

43 KB

Статус: проверено
Скачан: 0 раз
Размер: 7.97 GB
Оценка: 
(Голосов: 0)
Сказали спасибо: 0  Спасибо
Похожие темы
[Профиль]    [ЛС]
Показать сообщения:    
Ответить на тему

Текущее время: Сегодня 16:45

Часовой пояс: GMT + 7



Вы не можете начинать темы
Вы не можете отвечать на сообщения
Вы не можете редактировать свои сообщения
Вы не можете удалять свои сообщения
Вы не можете голосовать в опросах
Вы не можете прикреплять файлы к сообщениям
Вы можете скачивать файлы