(Stoner | Doom Metal) [CD] Santo Rostro - The Healer - 2017, FLAC (image+.cue), lossless

Ответить на тему
Статистика раздачи [Обновить пиров]
Размер:  352 MB   |    Зарегистрирован:  30 дней   |    Скачан:  0 раз

Полного источника не было: Никогда

 
   
 
 
 
Автор Сообщение

torrentc.info

Создавать темы 21-Май-2018 21:07

[Цитировать]

Santo Rostro - The Healer
--Жанр: Stoner | Doom Metal
Носитель: CD
Год издания: 2017
Страна исполнителя (группы): Spain
Аудиокодек: FLAC (*.flac)
Тип рипа: image+.cue
Битрейт аудио: lossless
Продолжительность: 00:37:44
Источник (релизер): kabanych
Наличие сканов: да
Треклист:
01. One Small Victory [00:04:59]
02. Cut My Hand [00:11:06]
03. Born Again [00:03:55]
04. The Healer [00:10:17]
05. Hylonome [00:07:24]
--

Лог создания рипа

Exact Audio Copy V1.3 from 2. September 2016
Отчёт EAC об извлечении, выполненном 19. мая 2018, 12:31
Santo Rostro / The Healer
Дисковод: ASUS DRW-24D5MT Adapter: 2 ID: 0
Режим чтения : ДостоверностьИспользование точного потока : ДаОтключение кэша аудио : ДаИспользование указателей C2 : Нет
Коррекция смещения при чтении : 6Способность читать области Lead-in и Lead-out : НетЗаполнение пропущенных сэмплов тишиной : ДаУдаление блоков с тишиной в начале и конце : НетПри вычислениях CRC использовались нулевые сэмплы : ДаИнтерфейс : Установленный внешний ASPI-интерфейс
Выходной формат : Пользовательский кодировщикВыбранный битрейт : 128 kBit/sКачество : ВысокийДобавление ID3-тега : НетУтилита сжатия : C:\Program Files (x86)\Exact Audio Copy\Flac\flac.exeДополнительные параметры : -V -8 -T "Date=%year%" -T "Genre=%genre%" %source%
TOC извлечённого CD
Трек | Старт | Длительность | Начальный сектор | Конечный сектор --------------------------------------------------------------------- 1 | 0:00.00 | 4:59.69 | 0 | 22493 2 | 4:59.69 | 11:06.56 | 22494 | 72499 3 | 16:06.50 | 3:55.70 | 72500 | 90194 4 | 20:02.45 | 10:17.29 | 90195 | 136498 5 | 30:19.74 | 7:24.02 | 136499 | 169800
Характеристики диапазона извлечения и сообщения об ошибках
Выбранный диапазон
Имя файла C:\Users\KABANYCH\Desktop\Отправить\Santo Rostro\2017 '' The Healer ''\Santo Rostro - The Healer.wav
Пиковый уровень 96.6 % Скорость извлечения 2.7 X Качество диапазона 100.0 % CRC теста CF08BA54 CRC копии CF08BA54 Копирование... OK
Ошибок не произошло
AccurateRip: сводка
Трек 1 отсутствует в базе данныхТрек 2 отсутствует в базе данныхТрек 3 отсутствует в базе данныхТрек 4 отсутствует в базе данныхТрек 5 отсутствует в базе данных
Ни одного трека нет в базе AccurateRip
Конец отчёта
---- CUETools DB Plugin V2.1.6
[CTDB TOCID: UeFaTjcfOuiS6rXVl_3W6dQGsE4-] disk not present in databaseSubmit result: UeFaTjcfOuiS6rXVl_3W6dQGsE4- has been uploaded
==== Контрольная сумма отчёта 3023AA47EDB270929DCFFFB5BD6B9D0CC00D53DC09BA0C42DF64B03BB60AF768 ====

Содержание индексной карты (.CUE)

REM GENRE "Stoner Doom Metal"REM DATE 2017REM DISCID 3008D805REM COMMENT "ExactAudioCopy v1.3"PERFORMER "Santo Rostro"TITLE "The Healer"REM COMPOSER ""FILE "Santo Rostro - The Healer.flac" WAVE TRACK 01 AUDIO TITLE "One Small Victory" PERFORMER "Santo Rostro" REM COMPOSER "" INDEX 01 00:00:00 TRACK 02 AUDIO TITLE "Cut My Hand" PERFORMER "Santo Rostro" REM COMPOSER "" INDEX 01 04:59:69 TRACK 03 AUDIO TITLE "Born Again" PERFORMER "Santo Rostro" REM COMPOSER "" INDEX 01 16:06:50 TRACK 04 AUDIO TITLE "The Healer" PERFORMER "Santo Rostro" REM COMPOSER "" INDEX 01 20:02:45 TRACK 05 AUDIO TITLE "Hylonome" PERFORMER "Santo Rostro" REM COMPOSER "" INDEX 01 30:19:74

Лог проверки качества

-----------------------
DON'T MODIFY THIS FILE
-----------------------
PERFORMER: auCDtect Task Manager, ver. 1.6.0 RC1 build 1.6.0.1Copyright (c) 2008-2010 y-soft. All rights reservedhttp://y-soft.org
ANALYZER: auCDtect: CD records authenticity detector, version 0.8.2Copyright (c) 2004 Oleg Berngardt. All rights reserved.Copyright (c) 2004 Alexander Djourik. All rights reserved.
FILE: Santo Rostro - The Healer.flac Size: 251794939 Hash: F692B68848B6E3A6B82AC19EDF71F926 Accuracy: -m0 Conclusion: CDDA 99% Signature: E73B61DCA36256B0937A1A5E872CFFD8C7F251C3

Скриншот спектра частот



[torrentc.info]_t_5564323.torrent
Торрент: Зарегистрирован ·  [ 2018-05-21 21:04 ] ·  0d60528009b5748081a012443dafaa1fd0e7ccf1

15 KB

Статус: проверено
Скачан: 0 раз
Размер: 352 MB
Оценка: 
(Голосов: 0)
Сказали спасибо: 0  Спасибо
Похожие темы
[Профиль]    [ЛС]
Показать сообщения:    
Ответить на тему

Текущее время: Сегодня 15:07

Часовой пояс: GMT + 7



Вы не можете начинать темы
Вы не можете отвечать на сообщения
Вы не можете редактировать свои сообщения
Вы не можете удалять свои сообщения
Вы не можете голосовать в опросах
Вы не можете прикреплять файлы к сообщениям
Вы можете скачивать файлы