(Avant-garde, Alternative, Indie, Expermintal) [CD] Pissuk Rachav - Based On A True Story - 2012 (Harake), FLAC (tracks+.cue), lossless

Ответить на тему
Статистика раздачи [Обновить пиров]
Размер:  301 MB   |    Зарегистрирован:  4 месяца 27 дней   |    Скачан:  0 раз

Полного источника не было: Никогда

 
   
 
 
 
Автор Сообщение

torrentc.info

Создавать темы 21-Май-2018 21:06

[Цитировать]

-- --Pissuk Rachav - Based On A True Story - 2012 (Harake)-- MG: Один из возможных переводов (Писук - слово многозначное) - широкая запятая. В числе основных влияний солист и основной автор (Джереми Фогель) называет Сержа Гинзбурга, Фрэнка Заппу и Гонг. В музыкальном плане группа, хотя и достаточно оригинальна среди прочих, но на потрясения основ не претендует, а вот тексты…. Провокативность вполне на уровне Заппы. Основная тематика - тексты и постулаты Танаха. На не знающих иврит альбом сильного впечатления не произведет, а при понимании текстов наступает полный разрыв шаблона и или полное неприятие, или желание еще раз внимательно вслушаться в тексты. Предупреждение - оскорбления чувств верующих там нет, но серьезно соблюдающим еврейскую традицию альбом лучше не слушать
Жанр: Avant-garde, Alternative, Indie, Expermintal
Носитель: CD (Album, Cardboard/Paper Sleeve)
Страна-производитель диска (релиза): Israel
Год издания оригинала: 2012
Издатель (лейбл): Kol HaCampus / Harake
Номер по каталогу: 004
Страна исполнителя (группы): Israel
Язык: Hebrew
Дата / место записи: Live @ Kol HaCampus Studios 16-17.04.12
Аудио кодек: FLAC (*.flac)
Тип рипа: (tracks + .cue)
Битрейт аудио: lossless
Наличие сканов в содержимом раздачи: full scans, png, 300 dpi
Продолжительность: 52:12
Источник (релизер): Моя коллекция, мой рип
Трэклист:
1. נאמנות - Преданность (3:08)
2. דו מיני - Двухполость (3:16)
3. אני רוצה - Я хочу (2:51)
4. טילים טילים - Ракеты, ракеты (2:40)
5. אד ענן - Облако (5:32)
6. דמון שטן - Демон Сатана (4:36)
7. קאמה סוטרה - Камасутра (2:32)
8. סטניסלבוב - Станиславов (5:18)
9. המפרק השמיימי - Небесный сустав (2:52)
10. בולבול בלב - Путаница в сердце (2:29)
11. דרקון דרכו - Дракон Драко (6:56)
12. אני היודונאצי - Я - иегудонаци (5:21)
13. זרע זעיר של אהבה - Крошечное семя любви (4:34)

Лог создания рипа

Exact Audio Copy V1.3 from 2. September 2016
EAC extraction logfile from 21. April 2018, 17:20
פיסוק רחב / מבוסס על סיפור אמיתי
Used drive : HL-DT-STDVDRAM GH24NSB0 Adapter: 1 ID: 0
Read mode : SecureUtilize accurate stream : YesDefeat audio cache : YesMake use of C2 pointers : No
Read offset correction : 6Overread into Lead-In and Lead-Out : NoFill up missing offset samples with silence : YesDelete leading and trailing silent blocks : NoNull samples used in CRC calculations : YesUsed interface : Native Win32 interface for Win NT & 2000Gap handling : Appended to previous track
Used output format : User Defined EncoderSelected bitrate : 1024 kBit/sQuality : HighAdd ID3 tag : NoCommand line compressor : C:\Program Files (x86)\Exact Audio Copy\FLAC\FLAC.EXEAdditional command line options : -V -8 -T "Genre=%genre%" -T "Artist=%artist%" -T "Title=%title%" -T "Album=%albumtitle%" -T "Date=%year%" -T "Tracknumber=%tracknr%" -T "Comment=%comment%" %source%
TOC of the extracted CD
Track | Start | Length | Start sector | End sector --------------------------------------------------------- 1 | 0:00.00 | 3:08.64 | 0 | 14163 2 | 3:08.64 | 3:16.03 | 14164 | 28866 3 | 6:24.67 | 2:51.45 | 28867 | 41736 4 | 9:16.37 | 2:40.70 | 41737 | 53806 5 | 11:57.32 | 5:32.37 | 53807 | 78743 6 | 17:29.69 | 4:36.35 | 78744 | 99478 7 | 22:06.29 | 2:32.28 | 99479 | 110906 8 | 24:38.57 | 5:18.73 | 110907 | 134829 9 | 29:57.55 | 2:52.44 | 134830 | 147773 10 | 32:50.24 | 2:29.66 | 147774 | 159014 11 | 35:20.15 | 6:56.69 | 159015 | 190283 12 | 42:17.09 | 5:21.13 | 190284 | 214371 13 | 47:38.22 | 4:34.30 | 214372 | 234951
Track 1
Filename D:\Music\MG rips\פיסוק רחב - מבוסס על סיפור אמיתי - 2012\01 - נאמנות.wav
Pre-gap length 0:00:02.00
Peak level 98.8 % Extraction speed 0.9 X Track quality 100.0 % Test CRC 885F40A9 Copy CRC 885F40A9 Accurately ripped (confidence 1) [5DE9F4D2] (AR v2) Copy OK
Track 2
Filename D:\Music\MG rips\פיסוק רחב - מבוסס על סיפור אמיתי - 2012\02 - דו מיני.wav
Peak level 98.8 % Extraction speed 1.0 X Track quality 100.0 % Test CRC 7414B230 Copy CRC 7414B230 Accurately ripped (confidence 1) [14343B51] (AR v2) Copy OK
Track 3
Filename D:\Music\MG rips\פיסוק רחב - מבוסס על סיפור אמיתי - 2012\03 - אני רוצה.wav
Peak level 98.8 % Extraction speed 1.1 X Track quality 100.0 % Test CRC EA990D34 Copy CRC EA990D34 Accurately ripped (confidence 1) [FCE1F235] (AR v2) Copy OK
Track 4
Filename D:\Music\MG rips\פיסוק רחב - מבוסס על סיפור אמיתי - 2012\04 - טילים טילים.wav
Peak level 98.8 % Extraction speed 1.1 X Track quality 100.0 % Test CRC 46C0119D Copy CRC 46C0119D Accurately ripped (confidence 1) [F13F3604] (AR v2) Copy OK
Track 5
Filename D:\Music\MG rips\פיסוק רחב - מבוסס על סיפור אמיתי - 2012\05 - אד ענן.wav
Peak level 98.8 % Extraction speed 1.3 X Track quality 100.0 % Test CRC 93FFC7A7 Copy CRC 93FFC7A7 Accurately ripped (confidence 1) [0AADBA45] (AR v2) Copy OK
Track 6
Filename D:\Music\MG rips\פיסוק רחב - מבוסס על סיפור אמיתי - 2012\06 - דמון שטן.wav
Peak level 98.8 % Extraction speed 1.4 X Track quality 100.0 % Test CRC 726EB48B Copy CRC 726EB48B Accurately ripped (confidence 1) [22E418C3] (AR v2) Copy OK
Track 7
Filename D:\Music\MG rips\פיסוק רחב - מבוסס על סיפור אמיתי - 2012\07 - קאמה סוטרה.wav
Peak level 98.8 % Extraction speed 1.1 X Track quality 99.9 % Test CRC 010B79C5 Copy CRC 010B79C5 Accurately ripped (confidence 1) [A57C1E63] (AR v2) Copy OK
Track 8
Filename D:\Music\MG rips\פיסוק רחב - מבוסס על סיפור אמיתי - 2012\08 - סטניסלבוב.wav
Peak level 98.8 % Extraction speed 1.6 X Track quality 100.0 % Test CRC C3D56C29 Copy CRC C3D56C29 Accurately ripped (confidence 1) [2F32C1D1] (AR v2) Copy OK
Track 9
Filename D:\Music\MG rips\פיסוק רחב - מבוסס על סיפור אמיתי - 2012\09 - המפרק השמיימי.wav
Peak level 98.8 % Extraction speed 1.5 X Track quality 100.0 % Test CRC F63A058C Copy CRC F63A058C Accurately ripped (confidence 1) [05C6945D] (AR v2) Copy OK
Track 10
Filename D:\Music\MG rips\פיסוק רחב - מבוסס על סיפור אמיתי - 2012\10 - בולבול בלב.wav
Peak level 98.8 % Extraction speed 1.5 X Track quality 100.0 % Test CRC A8470368 Copy CRC A8470368 Accurately ripped (confidence 1) [00CCFB7D] (AR v2) Copy OK
Track 11
Filename D:\Music\MG rips\פיסוק רחב - מבוסס על סיפור אמיתי - 2012\11 - דרקון דרכו.wav
Peak level 98.8 % Extraction speed 1.8 X Track quality 100.0 % Test CRC EFE8908F Copy CRC EFE8908F Accurately ripped (confidence 1) [9B7C0975] (AR v2) Copy OK
Track 12
Filename D:\Music\MG rips\פיסוק רחב - מבוסס על סיפור אמיתי - 2012\12 - אני היודונאצי.wav
Peak level 98.8 % Extraction speed 1.9 X Track quality 100.0 % Test CRC 888D78F5 Copy CRC 888D78F5 Accurately ripped (confidence 1) [FDC6DC55] (AR v2) Copy OK
Track 13
Filename D:\Music\MG rips\פיסוק רחב - מבוסס על סיפור אמיתי - 2012\13 - זרע זעיר של אהבה.wav
Peak level 98.8 % Extraction speed 1.9 X Track quality 100.0 % Test CRC 8AD9F4CA Copy CRC 8AD9F4CA Accurately ripped (confidence 1) [4B678613] (AR v2) Copy OK
All tracks accurately ripped
No errors occurred
End of status report
==== Log checksum EF669B73A394FB9059425D0DFDCB36FD33D2A9EC87DDAD784DA2906725627498 ====

Содержание индексной карты (.CUE):

REM GENRE AvantgardeREM DATE 2012REM DISCID B90C3C0DREM COMMENT "ExactAudioCopy v1.3"PERFORMER "פיסוק רחב"TITLE "מבוסס על סיפור אמיתי"REM COMPOSER ""FILE "01 - נאמנות.wav" WAVE TRACK 01 AUDIO TITLE "נאמנות" PERFORMER "פיסוק רחב" REM COMPOSER "" FLAGS DCP INDEX 01 00:00:00FILE "02 - דו מיני.wav" WAVE TRACK 02 AUDIO TITLE "דו מיני" PERFORMER "פיסוק רחב" REM COMPOSER "" FLAGS DCP INDEX 01 00:00:00FILE "03 - אני רוצה.wav" WAVE TRACK 03 AUDIO TITLE "אני רוצה" PERFORMER "פיסוק רחב" REM COMPOSER "" FLAGS DCP INDEX 01 00:00:00FILE "04 - טילים טילים.wav" WAVE TRACK 04 AUDIO TITLE "טילים טילים" PERFORMER "פיסוק רחב" REM COMPOSER "" FLAGS DCP INDEX 01 00:00:00FILE "05 - אד ענן.wav" WAVE TRACK 05 AUDIO TITLE "אד ענן" PERFORMER "פיסוק רחב" REM COMPOSER "" FLAGS DCP INDEX 01 00:00:00FILE "06 - דמון שטן.wav" WAVE TRACK 06 AUDIO TITLE "דמון שטן" PERFORMER "פיסוק רחב" REM COMPOSER "" FLAGS DCP INDEX 01 00:00:00FILE "07 - קאמה סוטרה.wav" WAVE TRACK 07 AUDIO TITLE "קאמה סוטרה" PERFORMER "פיסוק רחב" REM COMPOSER "" FLAGS DCP INDEX 01 00:00:00FILE "08 - סטניסלבוב.wav" WAVE TRACK 08 AUDIO TITLE "סטניסלבוב" PERFORMER "פיסוק רחב" REM COMPOSER "" FLAGS DCP INDEX 01 00:00:00FILE "09 - המפרק השמיימי.wav" WAVE TRACK 09 AUDIO TITLE "המפרק השמיימי" PERFORMER "פיסוק רחב" REM COMPOSER "" FLAGS DCP INDEX 01 00:00:00FILE "10 - בולבול בלב.wav" WAVE TRACK 10 AUDIO TITLE "בולבול בלב" PERFORMER "פיסוק רחב" REM COMPOSER "" FLAGS DCP INDEX 01 00:00:00FILE "11 - דרקון דרכו.wav" WAVE TRACK 11 AUDIO TITLE "דרקון דרכו" PERFORMER "פיסוק רחב" REM COMPOSER "" FLAGS DCP INDEX 01 00:00:00FILE "12 - אני היודונאצי.wav" WAVE TRACK 12 AUDIO TITLE "אני היודונאצי" PERFORMER "פיסוק רחב" REM COMPOSER "" FLAGS DCP INDEX 01 00:00:00FILE "13 - זרע זעיר של אהבה.wav" WAVE TRACK 13 AUDIO TITLE "זרע זעיר של אהבה" PERFORMER "פיסוק רחב" REM COMPOSER "" FLAGS DCP INDEX 01 00:00:00

Лог проверки качества

Лог CUETools

[CUETools log; Date: 5/11/2018 8:38:04 PM; Version: 2.1.5][CTDB TOCID: .uCpWPJ4tj8FHRQDdgCVBF3jLoQ-] found.Track | CTDB Status 1 | (1/1) Accurately ripped 2 | (1/1) Accurately ripped 3 | (1/1) Accurately ripped 4 | (1/1) Accurately ripped 5 | (1/1) Accurately ripped 6 | (1/1) Accurately ripped 7 | (1/1) Accurately ripped 8 | (1/1) Accurately ripped 9 | (1/1) Accurately ripped 10 | (1/1) Accurately ripped 11 | (1/1) Accurately ripped 12 | (1/1) Accurately ripped 13 | (1/1) Accurately ripped[AccurateRip ID: 00170644-00eb1755-b90c3c0d] found.Track [ CRC | V2 ] Status 01 [4daab8f0|5de9f4d2] (0+1/1) Accurately ripped 02 [626c260b|14343b51] (0+1/1) Accurately ripped 03 [a9251a8e|fce1f235] (0+1/1) Accurately ripped 04 [4d74e29c|f13f3604] (0+1/1) Accurately ripped 05 [0f5f9b37|0aadba45] (0+1/1) Accurately ripped 06 [0deabb35|22e418c3] (0+1/1) Accurately ripped 07 [f4274fce|a57c1e63] (0+1/1) Accurately ripped 08 [4b41079f|2f32c1d1] (0+1/1) Accurately ripped 09 [c55ed35d|05c6945d] (0+1/1) Accurately ripped 10 [bb5839e7|00ccfb7d] (0+1/1) Accurately ripped 11 [f17bfcbb|9b7c0975] (0+1/1) Accurately ripped 12 [dd003770|fdc6dc55] (0+1/1) Accurately ripped 13 [26fb0b40|4b678613] (0+1/1) Accurately ripped
Track Peak [ CRC32 ] [W/O NULL] [ LOG ] -- 98.8 [61E9E1A3] [36C0ADD6] 01 98.8 [885F40A9] [C0E78C22] CRC32 02 98.8 [7414B230] [ED431A2E] CRC32 03 98.8 [EA990D34] [D8C6ECF1] CRC32 04 98.8 [46C0119D] [2578903B] CRC32 05 98.8 [93FFC7A7] [45EE03F2] CRC32 06 98.8 [726EB48B] [CA1B7DCE] CRC32 07 98.8 [010B79C5] [2EAC0329] CRC32 08 98.8 [C3D56C29] [95FACD17] CRC32 09 98.8 [F63A058C] [D6BD24F9] CRC32 10 98.8 [A8470368] [2B761EA2] CRC32 11 98.8 [EFE8908F] [6E763AD2] CRC32 12 98.8 [888D78F5] [11CF1F0C] CRC32 13 98.8 [8AD9F4CA] [5C3BAB0D] CRC32

Замер динамического диапазона

foobar2000 1.3.10 / Замер динамического диапазона (DR) 1.1.1Дата отчёта: 2018-05-14 12:32:02
--------------------------------------------------------------------------------Анализ: פיסוק רחב / מבוסס על סיפור אמיתי--------------------------------------------------------------------------------
DR Пики RMS Продолжительность трека--------------------------------------------------------------------------------DR7 -0.10 дБ -8.46 дБ 3:09 01-נאמנותDR6 -0.10 дБ -8.49 дБ 3:16 02-דו מיניDR6 -0.10 дБ -8.20 дБ 2:52 03-אני רוצהDR5 -0.10 дБ -8.59 дБ 2:41 04-טילים טיליםDR8 -0.10 дБ -11.33 дБ 5:32 05-אד ענןDR6 -0.10 дБ -8.79 дБ 4:36 06-דמון שטןDR6 -0.10 дБ -8.41 дБ 2:32 07-קאמה סוטרהDR6 -0.10 дБ -9.09 дБ 5:19 08-סטניסלבובDR14 -0.10 дБ -17.08 дБ 2:53 09-המפרק השמיימיDR10 -0.10 дБ -14.62 дБ 2:30 10-בולבול בלבDR8 -0.10 дБ -12.06 дБ 6:57 11-דרקון דרכוDR6 -0.10 дБ -8.54 дБ 5:21 12-אני היודונאציDR11 -0.10 дБ -15.03 дБ 4:34 13-זרע זעיר של אהבה--------------------------------------------------------------------------------
Количество треков: 13Реальные значения DR: DR8
Частота: 44100 ГцКаналов: 2Разрядность: 16Битрейт: 572 кбит/сКодек: FLAC================================================================================
-

Back

Диск

Матрица

О группе:

Originally conceived as the Shimon Peres trio for Japanese Jazz, Pissuk Rachav is the bastard child of holy land poetic visions & Bramanchari Circus Music.
Mostly, the bandmembers are kind and compassionate people. They think it's going to be O.K. Currently working on somekind of a concept album "Eretz Hakodesh", explorations of Zion through lens of hassidic porn & the loving erection of the soul. Pissuk Rachav plan a second concept album "Bruria Mehabank Habenleumi Harishon", perambulations through the existential crisis experienced by post-menopause & suddenly somewhat melancholic Bruria heroine. We would advice all listeners to work out their own salvation with diligence & would like to dedicate all we say, write, sing, play or do to the eternal landlord of the soul. Be wise, dear friends, and have no fear......
Our influences: Serge & Allen Gainsbourg & Ginsberg, Frank Zappa, Rimbaud, Meir from Shenkin Street, Jack Kerouack, Moses, Buddha, Jesus Christ from Nazareth, Sukar the big fat polar cat, Saraswahti, Ganesha, Daevid Allen & the wonderful Gong Family, Incredible String Band, mother Theresa ....

Состав

Jeremy Fogel - ukulele (7), vocals, trumpet,
Noa Rimer - percussion (1), drums (6), vocals, keyboards, piano , glokenshpil
Ravid Zignon - vocals (5), marimba, ritual instruments
Yaron Allouche - bass (3), keyboards, termen, back vocals
Erez Frank - ukulele (13), bass, guitar, back vocals
Ariel Armony - drums, percussion, accordion, back vocals
Saar Yachin - declamation (9), flutes, back vocals
with guests:
Gilad Ronen - sax (2)
Lion Feldman - voice from radio (12)
"Pirchey Haraka" choir
-


[torrentc.info]_t_5562075.torrent
Торрент: Зарегистрирован ·  [ 2018-05-21 21:04 ] ·  35d612c6bef46be08f3653783be68bd9cf90e142

13 KB

Статус: проверено
Скачан: 0 раз
Размер: 301 MB
Оценка: 
(Голосов: 0)
Сказали спасибо: 0  Спасибо
Похожие темы
[Профиль]    [ЛС]
Показать сообщения:    
Ответить на тему

Текущее время: Сегодня 19:43

Часовой пояс: GMT + 7



Вы не можете начинать темы
Вы не можете отвечать на сообщения
Вы не можете редактировать свои сообщения
Вы не можете удалять свои сообщения
Вы не можете голосовать в опросах
Вы не можете прикреплять файлы к сообщениям
Вы можете скачивать файлы