Ричард III / Richard III (Джеймс Кин / James Keane, Андре Кальметт / André Calmettes) [1912, США, Франция, драма, DVDRip] Sub Rus (AlekceyR76)

Ответить на тему
Статистика раздачи [Обновить пиров]
Размер:  743 MB   |    Зарегистрирован:  4 месяца 28 дней   |    Скачан:  0 раз

Полного источника не было: Никогда

 
   
 
 
 
Автор Сообщение

torrentc.info

Создавать темы 21-Май-2018 14:49

[Цитировать]

Ричард III / Richard III
Страна: США, Франция
Жанр: драма
Год выхода: 1912
Продолжительность: 00:59:31
Перевод: Субтитры - AlekceyR76
Субтитры: русские
Оригинальная аудиодорожка: музыкальное сопровождение

Режиссер: Джеймс Кин / James Keane, Андре Кальметт / André Calmettes
В ролях: Фредерик Варде, Роберт Гемп, Альберт Гарднер, Джеймс Кин, Джордж Мосс, Мисс Виолет Стюарт, Мисс Кэрри Ли, Мисс Де Фелис
Описание: Англия, пятнадцатый век. Война Белой и Алой Розы, борьба за власть между сторонниками двух ветвей династии Плантагенетов - Ланкастеров и Йорков. Начало драмы – убийство Эдуарда, принца Уэльского, старшего сына короля и затем самого короля, Эдуарда IV Йорка. Корона достаётся роду Ланкастеров.
Развязка – путь к власти от одного убийства к другому короля Ричарда III, последнего Ланкастера и последнего Плантагенета.
Стандартный сюжет в истории человечества о взаимном истреблении, чаще всего бессмысленном, плоды победы в котором как всегда достаются кому-то третьему.
Ну и не менее распространённое болезненное стремление к власти любой ценой, и маниакальное желание её удержать, чему мы сами к сожалению были (и с ещё большем сожалением будем) неоднократными свидетелями за последние 15 лет…

Сэмпл
Качество видео: DVDRip
Формат файла: AVI
Видео: 624x480 (1.30:1), 23.976 fps, XviD build 73 ~1544 kbps avg, 0.22 bit/pixel
Аудио: 48 kHz, AC3 Dolby Digital, 2/0 (L,R) ch, ~192 kbps
Формат файла субтитров: softsub (SRT)

Фрагмент субтитров

29
00:19:10,563 --> 00:19:19,335
Король Эдуард неохотно подписывает
смертный приговор Кларенсу
30
00:20:21,467 --> 00:20:31,274
Ордер на смерть Георга, герцога Кларенса
31
00:21:14,286 --> 00:21:19,280
Ордер на смерть Георга, герцога Кларенса
32
00:22:46,578 --> 00:22:52,244
Смерть короля Эдуарда IV
33
00:23:24,783 --> 00:23:26,273
Конец второй части
34
00:23:26,785 --> 00:23:27,774
Часть третья
35
00:23:28,287 --> 00:23:32,690
Принцы Эдуард и Йорк, сыновья Эдуарда IV,
доставлены в Лондон
(как наследники престола)
36
00:27:49,281 --> 00:28:03,651
Глостер посылает герцога Букингемского,
чтобы призвать граждан Лондона
потребовать отдать ему (Глостеру) трон
37
00:28:24,616 --> 00:28:38,326
Лорд-мэр и граждане Лондона посещают
Глостера, который сначала отказывается,
(для видимости)
но потом соглашается принять корону

MediaInfo

GeneralComplete name : H:\Richard.III.1912.DVDRip_[745]_[teko\Richard.III.1912.DVDRip_[745].aviFormat : AVIFormat/Info : Audio Video InterleaveFile size : 743 MiBDuration : 59mn 31sOverall bit rate : 1 746 KbpsWriting application : VirtualDubMod 1.5.10.3 | www.virtualdub-fr.org || (build 2550/release)Writing library : VirtualDubMod build 2550/release
VideoID : 0Format : MPEG-4 VisualFormat profile : Advanced Simple@L5Format settings, BVOP : 2Format settings, QPel : NoFormat settings, GMC : No warppointsFormat settings, Matrix : CustomCodec ID : XVIDCodec ID/Hint : XviDDuration : 59mn 31sBit rate : 1 544 KbpsWidth : 624 pixelsHeight : 480 pixelsDisplay aspect ratio : 4:3Frame rate : 23.976 (24000/1001) fpsColor space : YUVChroma subsampling : 4:2:0Bit depth : 8 bitsScan type : ProgressiveCompression mode : LossyBits/(Pixel*Frame) : 0.215Stream size : 658 MiB (88%)Writing library : XviD 73
AudioID : 1Format : AC-3Format/Info : Audio Coding 3Mode extension : CM (complete main)Format settings, Endianness : BigCodec ID : 2000Duration : 59mn 31sBit rate mode : ConstantBit rate : 192 KbpsChannel(s) : 2 channelsChannel positions : Front: L RSampling rate : 48.0 KHzFrame rate : 31.250 fps (1536 spf)Compression mode : LossyStream size : 81.7 MiB (11%)Alignment : Split accross interleavesInterleave, duration : 42 ms (1.00 video frame)Interleave, preload duratio : 500 ms
:--


[torrentc.info]_t_5564274.torrent
Торрент: Зарегистрирован ·  [ 2018-05-21 14:49 ] ·  14b52ffc8a02db2f67230ebbbe1d0b77ac58e069

15 KB

Статус: проверено
Скачан: 0 раз
Размер: 743 MB
Оценка: 
(Голосов: 0)
Сказали спасибо: 0  Спасибо
Похожие темы
[Профиль]    [ЛС]
Показать сообщения:    
Ответить на тему

Текущее время: Сегодня 23:42

Часовой пояс: GMT + 7



Вы не можете начинать темы
Вы не можете отвечать на сообщения
Вы не можете редактировать свои сообщения
Вы не можете удалять свои сообщения
Вы не можете голосовать в опросах
Вы не можете прикреплять файлы к сообщениям
Вы можете скачивать файлы