[TR24][OF] Earthborn Visions — MMXVI, [EV017], 2016, (Ambient, Modern Classical, Dub, Experimental)

Ответить на тему
Статистика раздачи [Обновить пиров]
Размер:  656 MB   |    Зарегистрирован:  1 месяц 2 дня   |    Скачан:  0 раз

Полного источника не было: Никогда

 
   
 
 
 
Автор Сообщение

torrentc.info

Создавать темы 20-Май-2018 22:59

[Цитировать]

Earthborn Visions — MMXVI (2016, Self-Released)- Жанр: Electronic
Стиль: Ambient, Modern Classical, Dub, Experimental
Формат файла: WEB
Год издания: 2016
Издатель (лейбл): Self-Released
Номер по каталогу: EV017
Страна исполнителя (группы): [img]https://archive.org/download/flags_201712/uk.png[/img] UK
Формат файла записи/Источник записи: [TR24][OF]
Разрядность: 24/44,1
Формат файла: WAV (flac.ape.wv)
Количество каналов: 2.0
Формат файла: FLAC (*.flac)
Тип рипа: tracks
Продолжительность: 01:06:48
Источник: bandcamp
Наличие сканов в содержимом раздачи: только обложка
-Треклист:
01. Earthborn Visions - Drift [03:44]
02. Earthborn Visions - Treasure [04:18]
03. Earthborn Visions - Selection [03:00]
04. Earthborn Visions - Hunting [07:00]
05. Earthborn Visions - Fracture (edit) [04:24]
06. Earthborn Visions - Viable [03:28]
07. Earthborn Visions - Channel [04:04]
08. Earthborn Visions - Structure [03:36]
09. Earthborn Visions - Winter [06:12]
10. Earthborn Visions - Assembly [04:32]
11. Earthborn Visions - Deprive [05:16]
12. Earthborn Visions - Splintery Era [03:50]
13. Earthborn Visions - Drying Faith [04:50]
14. Earthborn Visions - Ovoid Cashew [04:34]
15. Earthborn Visions - Lost Signals [04:00]-Полезные ссылки:
[img]https://archive.org/download/music_icons/musicbrain...img]MusicBrainz: Earthborn Visions — MMXVI
[img]https://archive.org/download/music_icons/bandcamp_1...g[/img]Bandcamp: Earthborn Visions — MMXVI-

Замер динамического диапазона (DRM)

foobar2000 1.3.17 / Dynamic Range Meter 1.1.1
log date: 2018-05-14 03:06:55
--------------------------------------------------------------------------------
Analyzed: Earthborn Visions / MMXVI
--------------------------------------------------------------------------------
DR Peak RMS Duration Track
--------------------------------------------------------------------------------
DR3 -0.40 dB -4.94 dB 3:44 01-Drift
DR4 -0.40 dB -6.84 dB 4:18 02-Treasure
DR5 -0.40 dB -6.98 dB 3:00 03-Selection
DR7 -0.40 dB -10.49 dB 7:00 04-Hunting
DR7 -0.40 dB -9.74 dB 4:24 05-Fracture (edit)
DR4 -0.40 dB -8.30 dB 3:28 06-Viable
DR7 -0.40 dB -8.83 dB 4:04 07-Channel
DR9 -0.40 dB -13.19 dB 3:36 08-Structure
DR6 -0.40 dB -9.95 dB 6:12 09-Winter
DR8 -0.40 dB -11.97 dB 4:32 10-Assembly
DR7 -0.40 dB -10.00 dB 5:17 11-Deprive
DR6 -0.40 dB -8.89 dB 3:50 12-Splintery Era
DR8 -0.40 dB -10.86 dB 4:50 13-Drying Faith
DR4 -0.40 dB -6.48 dB 4:34 14-Ovoid Cashew
DR8 -0.40 dB -10.78 dB 4:00 15-Lost Signals
--------------------------------------------------------------------------------
Number of tracks: 15
Official DR value: DR6
Samplerate: 44100 Hz
Channels: 2
Bits per sample: 24
Bitrate: 1369 kbps
Codec: FLAC
================================================================================


[torrentc.info]_t_5561591.torrent
Торрент: Зарегистрирован ·  [ 2018-05-20 22:56 ] ·  a242852132223fcf0fdbbaa78c6e4610b71062e4

15 KB

Статус: проверено
Скачан: 0 раз
Размер: 656 MB
Оценка: 
(Голосов: 0)
Сказали спасибо: 0  Спасибо
Похожие темы
[Профиль]    [ЛС]
Показать сообщения:    
Ответить на тему

Текущее время: Сегодня 09:58

Часовой пояс: GMT + 7



Вы не можете начинать темы
Вы не можете отвечать на сообщения
Вы не можете редактировать свои сообщения
Вы не можете удалять свои сообщения
Вы не можете голосовать в опросах
Вы не можете прикреплять файлы к сообщениям
Вы можете скачивать файлы