(Abstract, Minimal, Experimental) Ekkehard Ehlers - Betrieb {Mille Plateaux} - 2000, FLAC (tracks+.cue), lossless

Ответить на тему
Статистика раздачи [Обновить пиров]
Размер:  287 MB   |    Зарегистрирован:  1 месяц 3 дня   |    Скачан:  0 раз

Полного источника не было: Никогда

 
   
 
 
 
Автор Сообщение

torrentc.info

Создавать темы 20-Май-2018 22:59

[Цитировать]

Ekkehard Ehlers
Betrieb

-Жанр: Abstract, Minimal, Experimental
Год выхода диска: 2000
Производитель диска: France
Аудио кодек: FLAC
Тип рипа: tracks+.cue
Битрейт аудио: lossless
Продолжительность: 00:54:46
On = Auf 0:49
Inside = Innen 3:52
Open = Offen 4:33
Slow = Langsam 3:16
Wide = Weit 4:39
Faster = Schneller 1:20
Outside = Aussen 4:05
Earlier = Früher 6:09
Round = Rund 0:43
Wider = Weiter 2:29
Late = Spät 1:41
Later = Später 3:47
Down = Unten 6:29
Deep = Tief 4:46
After = Danach 1:46
Always = Immer 1:15
Shut = Zu
MP 85
EFA 08085-2
Mille Plateaux
www.mille-plateaux.com

EAC extraction logfile from 27. June 2008, 22:59

Exact Audio Copy V0.99 prebeta 4 from 23. January 2008
EAC extraction logfile from 27. June 2008, 22:59
Ekkehard Ehlers / Betrieb
Used drive : PIONEER DVD-RW DVR-212D Adapter: 3 ID: 0
Read mode : Secure
Utilize accurate stream : Yes
Defeat audio cache : Yes
Make use of C2 pointers : No
Read offset correction : 48
Overread into Lead-In and Lead-Out : No
Fill up missing offset samples with silence : Yes
Delete leading and trailing silent blocks : No
Null samples used in CRC calculations : Yes
Used interface : Native Win32 interface for Win NT & 2000
Gap handling : Appended to previous track
Used output format : User Defined Encoder
Selected bitrate : 128 kBit/s
Quality : High
Add ID3 tag : No
Command line compressor : C:\Program Files\FLAC\flac.exe
Additional command line options : -8 -V -T "ARTIST=%a" -T "TITLE=%t" -T "ALBUM=%g" -T "DATE=%y" -T "TRACKNUMBER=%n" -T "GENRE=%m" -T "COMMENT=EAC FLAC -8" %s
TOC of the extracted CD
Track | Start | Length | Start sector | End sector
---------------------------------------------------------
1 | 0:00.00 | 0:49.30 | 0 | 3704
2 | 0:49.30 | 3:52.30 | 3705 | 21134
3 | 4:41.60 | 4:33.65 | 21135 | 41674
4 | 9:15.50 | 3:16.45 | 41675 | 56419
5 | 12:32.20 | 4:39.59 | 56420 | 77403
6 | 17:12.04 | 1:20.57 | 77404 | 83460
7 | 18:32.61 | 4:05.56 | 83461 | 101891
8 | 22:38.42 | 6:09.62 | 101892 | 129628
9 | 28:48.29 | 0:43.44 | 129629 | 132897
10 | 29:31.73 | 2:29.27 | 132898 | 144099
11 | 32:01.25 | 1:41.41 | 144100 | 151715
12 | 33:42.66 | 3:47.48 | 151716 | 168788
13 | 37:30.39 | 6:29.00 | 168789 | 197963
14 | 43:59.39 | 4:46.34 | 197964 | 219447
15 | 48:45.73 | 1:46.74 | 219448 | 227471
16 | 50:32.72 | 1:15.11 | 227472 | 233107
17 | 51:48.08 | 2:58.24 | 233108 | 246481
Track 1
Filename H:\Ekkehard Ehlers - Betrieb\01 - On Auf.wav
Pre-gap length 0:00:02.00
Peak level 94.6 %
Track quality 100.0 %
Test CRC 21CB1BF0
Copy CRC 21CB1BF0
Track not present in AccurateRip database
Copy OK
Track 2
Filename H:\Ekkehard Ehlers - Betrieb\02 - Inside Innen.wav
Pre-gap length 0:00:04.03
Peak level 99.3 %
Track quality 100.0 %
Test CRC 27903125
Copy CRC 27903125
Track not present in AccurateRip database
Copy OK
Track 3
Filename H:\Ekkehard Ehlers - Betrieb\03 - Open Offen.wav
Pre-gap length 0:00:04.70
Peak level 99.7 %
Track quality 100.0 %
Test CRC AB825532
Copy CRC AB825532
Track not present in AccurateRip database
Copy OK
Track 4
Filename H:\Ekkehard Ehlers - Betrieb\04 - Slow Langsam.wav
Pre-gap length 0:00:04.74
Peak level 100.0 %
Track quality 100.0 %
Test CRC 4FE660C4
Copy CRC 4FE660C4
Track not present in AccurateRip database
Copy OK
Track 5
Filename H:\Ekkehard Ehlers - Betrieb\05 - Wide Weit.wav
Pre-gap length 0:00:04.72
Peak level 99.7 %
Track quality 100.0 %
Test CRC 29F603D7
Copy CRC 29F603D7
Track not present in AccurateRip database
Copy OK
Track 6
Filename H:\Ekkehard Ehlers - Betrieb\06 - Faster Schneller.wav
Pre-gap length 0:00:05.00
Peak level 62.9 %
Track quality 100.0 %
Test CRC 3584D44E
Copy CRC 3584D44E
Track not present in AccurateRip database
Copy OK
Track 7
Filename H:\Ekkehard Ehlers - Betrieb\07 - Outside Aussen.wav
Pre-gap length 0:00:05.23
Peak level 99.7 %
Track quality 100.0 %
Test CRC 3E8E0740
Copy CRC 3E8E0740
Track not present in AccurateRip database
Copy OK
Track 8
Filename H:\Ekkehard Ehlers - Betrieb\08 - Earlier Fruher.wav
Pre-gap length 0:00:04.38
Peak level 99.9 %
Track quality 100.0 %
Test CRC 655A4B4A
Copy CRC 655A4B4A
Track not present in AccurateRip database
Copy OK
Track 9
Filename H:\Ekkehard Ehlers - Betrieb\09 - Round Rund.wav
Pre-gap length 0:00:04.72
Peak level 41.9 %
Track quality 100.0 %
Test CRC B3C991CF
Copy CRC B3C991CF
Track not present in AccurateRip database
Copy OK
Track 10
Filename H:\Ekkehard Ehlers - Betrieb\10 - Wider Weiter.wav
Pre-gap length 0:00:04.68
Peak level 98.8 %
Track quality 100.0 %
Test CRC 933A48A0
Copy CRC 933A48A0
Track not present in AccurateRip database
Copy OK
Track 11
Filename H:\Ekkehard Ehlers - Betrieb\11 - Late Spat.wav
Pre-gap length 0:00:04.63
Peak level 82.7 %
Track quality 100.0 %
Test CRC 37F4D648
Copy CRC 37F4D648
Track not present in AccurateRip database
Copy OK
Track 12
Filename H:\Ekkehard Ehlers - Betrieb\12 - Later Spater.wav
Pre-gap length 0:00:04.62
Peak level 91.7 %
Track quality 100.0 %
Test CRC 1ED4DFD6
Copy CRC 1ED4DFD6
Track not present in AccurateRip database
Copy OK
Track 13
Filename H:\Ekkehard Ehlers - Betrieb\13 - Down Unten.wav
Pre-gap length 0:00:04.63
Peak level 58.7 %
Track quality 100.0 %
Test CRC 799FE156
Copy CRC 799FE156
Track not present in AccurateRip database
Copy OK
Track 14
Filename H:\Ekkehard Ehlers - Betrieb\14 - Deep Tief.wav
Pre-gap length 0:00:04.70
Peak level 89.7 %
Track quality 100.0 %
Test CRC E3818A9B
Copy CRC E3818A9B
Track not present in AccurateRip database
Copy OK
Track 15
Filename H:\Ekkehard Ehlers - Betrieb\15 - After Danach.wav
Pre-gap length 0:00:04.68
Peak level 94.4 %
Track quality 100.0 %
Test CRC F1336501
Copy CRC F1336501
Track not present in AccurateRip database
Copy OK
Track 16
Filename H:\Ekkehard Ehlers - Betrieb\16 - Always Immer.wav
Pre-gap length 0:00:04.66
Peak level 83.2 %
Track quality 100.0 %
Test CRC D2C55FD4
Copy CRC D2C55FD4
Track not present in AccurateRip database
Copy OK
Track 17
Filename H:\Ekkehard Ehlers - Betrieb\17 - Shut Zu.wav
Pre-gap length 0:00:04.74
Peak level 75.7 %
Track quality 99.9 %
Test CRC ADCC48BC
Copy CRC ADCC48BC
Track not present in AccurateRip database
Copy OK
None of the tracks are present in the AccurateRip database
No errors occurred
End of status report
Собственный рип с оригинального диска.
В комплекте полный набор сканов PNG/300dpi.


[torrentc.info]_t_971864.torrent
Торрент: Зарегистрирован ·  [ 2018-05-20 22:56 ] ·  d9ed141209ac8f1f7006941ac1627f4f9875322b

13 KB

Статус: проверено
Скачан: 0 раз
Размер: 287 MB
Оценка: 
(Голосов: 0)
Сказали спасибо: 0  Спасибо
Похожие темы
[Профиль]    [ЛС]
Показать сообщения:    
Ответить на тему

Текущее время: Сегодня 00:25

Часовой пояс: GMT + 7



Вы не можете начинать темы
Вы не можете отвечать на сообщения
Вы не можете редактировать свои сообщения
Вы не можете удалять свои сообщения
Вы не можете голосовать в опросах
Вы не можете прикреплять файлы к сообщениям
Вы можете скачивать файлы