Peter Maffay - MTV Unplugged [2018, Rock, Pop-Rock, BD=>DVD9+DVD5]

Ответить на тему
Статистика раздачи [Обновить пиров]
Размер:  12.14 GB   |    Зарегистрирован:  6 месяцев 29 дней   |    Скачан:  0 раз

Полного источника не было: Никогда

 
   
 
 
 
Автор Сообщение

torrentc.info

Создавать темы 20-Май-2018 22:57

[Цитировать]

Peter Maffay - MTV Unplugged
Страна: Germany
Жанр: Rock, Pop-Rock
Продолжительность: 01:53:54+01:10:05
Год выхода: 2018
Описание: Peter Maffay ist seit Jahren einer der erfolgreichsten Rock - Musiker Deutschlands. Siebzehn Nr.1 Alben infolge sprechen für sich. So bietet es sich geradezu an, endlich all seine Hits in einem Akustik Kleid zu präsentieren. Das MTV Unplugged von Peter Maffay dürfte die ereignisreichste Veröffentlichung des Jahres sein! Aufgezeichnet wurde das Konzert am 08. und 09. August 2017 in Halle an der Saale.
Треклист:
DVD1
01. Bring Mich Nach Haus
02. Gelobtes Land
03. Dein Gesicht
04. Schwarze Linien
05. Eiszeit (mit Johannes Oerding)
06. So Schön (mit Johannes Oerding)
07. Der Mensch Auf Den Du Wartest (mit Jennifer Weist)
08. Du
09. Leuchtturm (mit Jennifer Weist)
10. Wenn Der Letzte Regen Fällt
11. Über Sieben Brücken Musst Du Gehn (mit Johannes Oerding)
12 Weil Es Dich Gibt (mit Ilse Delange)
13. Room With A View (mit Tony Carey)
14. So Bist Du
15. Dreams On Fire (mit Katie Melua)
16. Ich Wollte Nie Erwachsen Sein (mit Katie Melua)
17. Medley: Schatten In Die Haut Tätowiert/Liebe Wird Verboten (mit Johannes Oerding)
18. Ewig (mit Philipp Poisel)
19. Wie Soll Ein Mensch Das Ertragen (mit Philipp Poisel)
20. Tiefer
21. Halleluja
DVD2
22. Sonne In Der Nacht (mit Ilse Delange)
23. Und Es War Sommer
24. Freiheit, Die Ich Meine (mit Katie Melua, Ilse Delange, Jennifer Weist, Johannes Oerding, Philipp Poisel und Tony Carey)
Bonus:
- MTV Unplugged Backstage
Доп. информация: Источник: Torrentc Blu-ray (Спасибо [url=profile.php?mode=viewprofile&u=9650821]anbelk27[/url]).
Большое спасибо [url=profile.php?mode=viewprofile&u=1069088]CHKA1961[/url] за помощь по созданию этого релиза.
Меню анимированное созданное на основе исходного.
Полученный результат проверен на работоспособность на софтовом Media Player Classic Home Cinema, записан на болванку с помощью ImgBurn и вновь проверен уже на бытовом плеере.--

Программы, использованные при создании этого релиза

Подготовка Источник: Torrentcа
SolveigMM Video Splitter Business Edition
tsMuxeR
Демуксинг
eac3to
HdBrStreamExtractor
Обработка видео
DGDecodeNV
AviSynth
Rhozet Carbon Coder
CCE-SP2
Обработка аудио
Audacity
DTS-HD Master Audio Suite
Создание меню
Snagit
AviSynth
Rhozet Carbon Coder
Авторинг и проверка
MPEG Video Wizard DVD
Muxman
DVD-lab PRO
DvdReMakePro
DVD1

DVD2

Скрипт

LoadPlugin("C:\Portable\DGDecNV2050\DGDecodeNV.dll")
DGSource("M:\AutoringDVD\Peter Maffay - MTV Unplugged\D1\1_1_video.dgi")
LoadPlugin("C:\Program Files (x86)\AviSynth 2.5\plugins\TDeint.dll")
TDeint(mode=1)
Lanczos4Resize(720,576)
AssumeTFF()
SeparateFields()
SelectEvery(4,0,3)
Weave()
LoadPlugin("C:\Program Files (x86)\AviSynth 2.5\plugins\AutoYUY2.dll")
AutoYUY2()
LoadPlugin("C:\Program Files (x86)\AviSynth 2.5\plugins\ColorMatrix.dll")
ColorMatrix(mode="Rec.709->Rec.601", inputFR=false, clamp=0)

Точка перехода

--DVD1
Разбивка на главы по трекам: есть
Качество : BD=>DVD9
Формат файла: DVD video
Видео кодек: MPEG2
Аудио кодек: PCM, DTS
Видео: PAL 16:9 (720x576) VBR Auto Letterboxed, ~6502(9800) Kbps, 25.000 fps
Аудио: Deutsch/English (LinearPCM, 2 ch), 1536 Kbps, 48.0 KHz
Аудио2: Deutsch/English (DTS, 6 ch), 1510 Kbps, 96.0 KHz, 24-bit

DVDinfo+MI

Title: DVD1Size: 7.85 Gb ( 8 232 518,00 KBytes ) - DVD-9Enabled regions: 1, 2, 3, 4, 5, 6, 7, 8
VTS_01 : Play Length: 01:53:54 Video: PAL 16:9 (720x576) VBR, Auto Letterboxed Audio: Deutsch (LinearPCM, 2 ch) Deutsch (DTS, 6 ch)
* Menus Information *
VIDEO_TS MenuVideo: PAL 16:9 (720x576) VBR Auto LetterboxedAudio: Not specified (LinearPCM, 2 ch)English Language Unit : Title Menu
VTS_01 MenuVideo: PAL 16:9 (720x576) VBR Auto LetterboxedAudio: Not specified (Dolby AC3, 2 ch)English Language Unit : Root Menu-GeneralComplete name : N:\Music Video\DVD\Peter Maffay - MTV Unplugged\DVD1\VIDEO_TS\VIDEO_TS.BUPFormat : DVD VideoFormat profile : MenuFile size : 12.0 KiBOverall bit rate mode : VariableFileExtension_Invalid : ifo
VideoID : 224 (0xE0)Format : MPEG VideoFormat version : Version 2Bit rate mode : VariableWidth : 720 pixelsHeight : 576 pixelsDisplay aspect ratio : 16:9Frame rate : 25.000 FPSStandard : PALCompression mode : Lossy
AudioFormat : PCMChannel(s) : 2 channelsSampling rate : 48.0 kHz
TextFormat : RLEFormat/Info : Run-length encodingBit depth : 2 bits
GeneralComplete name : N:\Music Video\DVD\Peter Maffay - MTV Unplugged\DVD1\VIDEO_TS\VIDEO_TS.IFOFormat : DVD VideoFormat profile : MenuFile size : 12.0 KiBOverall bit rate mode : Variable
VideoID : 224 (0xE0)Format : MPEG VideoFormat version : Version 2Bit rate mode : VariableWidth : 720 pixelsHeight : 576 pixelsDisplay aspect ratio : 16:9Frame rate : 25.000 FPSStandard : PALCompression mode : Lossy
AudioFormat : PCMChannel(s) : 2 channelsSampling rate : 48.0 kHz
TextFormat : RLEFormat/Info : Run-length encodingBit depth : 2 bits
GeneralComplete name : N:\Music Video\DVD\Peter Maffay - MTV Unplugged\DVD1\VIDEO_TS\VIDEO_TS.VOBFormat : MPEG-PSFile size : 7.28 MiBDuration : 8 s 0 msOverall bit rate mode : VariableOverall bit rate : 7 633 kb/s
VideoID : 224 (0xE0)Format : MPEG VideoFormat version : Version 2Format profile : Main@MainFormat settings, BVOP : YesFormat settings, Matrix : CustomFormat settings, GOP : M=3, N=15Format settings, picture structure : FrameDuration : 8 s 0 msBit rate mode : VariableBit rate : 5 945 kb/sMaximum bit rate : 8 000 kb/sWidth : 720 pixelsHeight : 576 pixelsDisplay aspect ratio : 16:9Frame rate : 25.000 FPSStandard : PALColor space : YUVChroma subsampling : 4:2:0Bit depth : 8 bitsScan type : InterlacedScan order : Top Field FirstCompression mode : LossyBits/(Pixel*Frame) : 0.573Time code of first frame : 00:00:00:00Time code source : Group of pictures headerGOP, Open/Closed : OpenGOP, Open/Closed of first frame : ClosedStream size : 5.67 MiB (78%)
AudioID : 189 (0xBD)-160 (0xA0)Format : PCMFormat settings, Endianness : BigFormat settings, Sign : SignedMuxing mode : DVD-VideoDuration : 7 s 730 msBit rate mode : ConstantBit rate : 1 536 kb/sChannel(s) : 2 channelsSampling rate : 48.0 kHzBit depth : 16 bitsStream size : 1.42 MiB (19%)
Text #1ID : 189 (0xBD)-32 (0x20)Format : RLEFormat/Info : Run-length encodingMuxing mode : DVD-Video
Text #2ID : 189 (0xBD)-34 (0x22)Format : RLEFormat/Info : Run-length encodingMuxing mode : DVD-Video
Menu
GeneralComplete name : N:\Music Video\DVD\Peter Maffay - MTV Unplugged\DVD1\VIDEO_TS\VTS_01_0.BUPFormat : DVD VideoFormat profile : ProgramFile size : 72.0 KiBDuration : 1 h 53 minOverall bit rate mode : VariableOverall bit rate : 86 b/sFileExtension_Invalid : ifo
VideoID : 224 (0xE0)Format : MPEG VideoFormat version : Version 2Duration : 1 h 53 minBit rate mode : VariableWidth : 720 pixelsHeight : 576 pixelsDisplay aspect ratio : 16:9Frame rate : 25.000 FPSStandard : PALCompression mode : Lossy
Audio #1ID : 0 (0x0)Format : PCMDuration : 1 h 53 minChannel(s) : 2 channelsSampling rate : 48.0 kHzLanguage : German
Audio #2ID : 137 (0x89)Format : DTSFormat/Info : Digital Theater SystemsChannel(s) : 6 channelsSampling rate : 0 HzCompression mode : LossyLanguage : German
MenuDuration : 1 h 53 min00:00:00.000 : Chapter 100:06:20.840 : Chapter 200:13:54.520 : Chapter 300:16:54.360 : Chapter 400:23:59.600 : Chapter 500:30:49.200 : Chapter 600:35:43.040 : Chapter 700:40:31.080 : Chapter 800:43:33.080 : Chapter 900:47:35.320 : Chapter 1000:54:10.760 : Chapter 1101:00:36.720 : Chapter 1201:04:40.960 : Chapter 1301:09:09.600 : Chapter 1401:14:29.400 : Chapter 1501:19:39.680 : Chapter 1601:24:39.200 : Chapter 1701:32:19.480 : Chapter 1801:36:54.000 : Chapter 1901:42:07.960 : Chapter 2001:47:03.080 : Chapter 21List (Audio) : 0 / 1
GeneralComplete name : N:\Music Video\DVD\Peter Maffay - MTV Unplugged\DVD1\VIDEO_TS\VTS_01_0.IFOFormat : DVD VideoFormat profile : ProgramFile size : 72.0 KiBDuration : 1 h 53 minOverall bit rate mode : VariableOverall bit rate : 86 b/s
VideoID : 224 (0xE0)Format : MPEG VideoFormat version : Version 2Duration : 1 h 53 minBit rate mode : VariableWidth : 720 pixelsHeight : 576 pixelsDisplay aspect ratio : 16:9Frame rate : 25.000 FPSStandard : PALCompression mode : Lossy
Audio #1ID : 0 (0x0)Format : PCMDuration : 1 h 53 minChannel(s) : 2 channelsSampling rate : 48.0 kHzLanguage : German
Audio #2ID : 137 (0x89)Format : DTSFormat/Info : Digital Theater SystemsChannel(s) : 6 channelsSampling rate : 0 HzCompression mode : LossyLanguage : German
MenuDuration : 1 h 53 min00:00:00.000 : Chapter 100:06:20.840 : Chapter 200:13:54.520 : Chapter 300:16:54.360 : Chapter 400:23:59.600 : Chapter 500:30:49.200 : Chapter 600:35:43.040 : Chapter 700:40:31.080 : Chapter 800:43:33.080 : Chapter 900:47:35.320 : Chapter 1000:54:10.760 : Chapter 1101:00:36.720 : Chapter 1201:04:40.960 : Chapter 1301:09:09.600 : Chapter 1401:14:29.400 : Chapter 1501:19:39.680 : Chapter 1601:24:39.200 : Chapter 1701:32:19.480 : Chapter 1801:36:54.000 : Chapter 1901:42:07.960 : Chapter 2001:47:03.080 : Chapter 21List (Audio) : 0 / 1
GeneralComplete name : N:\Music Video\DVD\Peter Maffay - MTV Unplugged\DVD1\VIDEO_TS\VTS_01_0.VOBFormat : MPEG-PSFile size : 113 MiBDuration : 1 min 11 sOverall bit rate mode : VariableOverall bit rate : 13.3 Mb/s
VideoID : 224 (0xE0)Format : MPEG VideoFormat version : Version 2Format profile : Main@MainFormat settings, BVOP : YesFormat settings, Matrix : CustomFormat settings, GOP : M=3, N=15Format settings, picture structure : FrameDuration : 40 msBit rate mode : VariableBit rate : 12.9 Mb/sMaximum bit rate : 6 000 kb/sWidth : 720 pixelsHeight : 576 pixelsDisplay aspect ratio : 16:9Frame rate : 25.000 FPSStandard : PALColor space : YUVChroma subsampling : 4:2:0Bit depth : 8 bitsScan type : InterlacedScan order : Top Field FirstCompression mode : LossyBits/(Pixel*Frame) : 1.241Time code of first frame : 00:00:00:00Time code source : Group of pictures headerGOP, Open/Closed : OpenGOP, Open/Closed of first frame : ClosedStream size : 62.8 KiB (0%)
AudioID : 189 (0xBD)-128 (0x80)Format : AC-3Format/Info : Audio Coding 3Format settings, Endianness : BigMuxing mode : DVD-VideoDuration : 1 min 11 sBit rate mode : ConstantBit rate : 192 kb/sChannel(s) : 2 channelsChannel positions : Front: L RSampling rate : 48.0 kHzFrame rate : 31.250 FPS (1536 SPF)Bit depth : 16 bitsCompression mode : LossyStream size : 1.63 MiB (1%)Service kind : Complete Main
Text #1ID : 189 (0xBD)-32 (0x20)Format : RLEFormat/Info : Run-length encodingMuxing mode : DVD-Video
Text #2ID : 189 (0xBD)-34 (0x22)Format : RLEFormat/Info : Run-length encodingMuxing mode : DVD-Video
Menu
GeneralComplete name : N:\Music Video\DVD\Peter Maffay - MTV Unplugged\DVD1\VIDEO_TS\VTS_01_1.VOBFormat : MPEG-PSFile size : 1 024 MiBDuration : 14 min 43 sOverall bit rate mode : VariableOverall bit rate : 9 723 kb/s
VideoID : 224 (0xE0)Format : MPEG VideoFormat version : Version 2Format profile : Main@MainFormat settings, BVOP : YesFormat settings, Matrix : CustomFormat settings, GOP : VariableFormat settings, picture structure : FrameDuration : 14 min 43 sBit rate mode : VariableBit rate : 6 484 kb/sMaximum bit rate : 9 800 kb/sWidth : 720 pixelsHeight : 576 pixelsDisplay aspect ratio : 16:9Frame rate : 25.000 FPSStandard : PALColor space : YUVChroma subsampling : 4:2:0Bit depth : 8 bitsScan type : InterlacedScan order : Top Field FirstCompression mode : LossyBits/(Pixel*Frame) : 0.625Time code of first frame : 01:00:00:00Time code source : Group of pictures headerGOP, Open/Closed : OpenGOP, Open/Closed of first frame : ClosedStream size : 683 MiB (67%)
Audio #1ID : 189 (0xBD)-137 (0x89)Format : DTSFormat/Info : Digital Theater SystemsFormat profile : 96/24 / CoreMode : 16Format settings, Endianness : BigMuxing mode : DVD-VideoDuration : 14 min 43 sBit rate mode : ConstantBit rate : 1 510 kb/sChannel(s) : 6 channelsChannel positions : Front: L C R, Side: L R, LFESampling rate : 96.0 kHz / 48.0 kHzFrame rate : 93.750 FPS (512 SPF)Bit depth : 24 bitsCompression mode : LossyStream size : 159 MiB (16%)
Audio #2ID : 189 (0xBD)-160 (0xA0)Format : PCMFormat settings, Endianness : BigFormat settings, Sign : SignedMuxing mode : DVD-VideoDuration : 14 min 43 sBit rate mode : ConstantBit rate : 1 536 kb/sChannel(s) : 2 channelsSampling rate : 48.0 kHzBit depth : 16 bitsStream size : 162 MiB (16%)
Menu
GeneralComplete name : N:\Music Video\DVD\Peter Maffay - MTV Unplugged\DVD1\VIDEO_TS\VTS_01_2.VOBFormat : MPEG-PSFile size : 1 024 MiBDuration : 14 min 42 sOverall bit rate mode : VariableOverall bit rate : 9 736 kb/s
VideoID : 224 (0xE0)Format : MPEG VideoFormat version : Version 2Format profile : Main@MainFormat settings, BVOP : YesFormat settings, Matrix : CustomFormat settings, GOP : M=3, N=15Format settings, picture structure : FrameDuration : 14 min 42 sBit rate mode : VariableBit rate : 6 497 kb/sMaximum bit rate : 9 800 kb/sWidth : 720 pixelsHeight : 576 pixelsDisplay aspect ratio : 16:9Frame rate : 25.000 FPSStandard : PALColor space : YUVChroma subsampling : 4:2:0Bit depth : 8 bitsScan type : InterlacedScan order : Top Field FirstCompression mode : LossyBits/(Pixel*Frame) : 0.627Time code of first frame : 01:14:43:14Time code source : Group of pictures headerGOP, Open/Closed : OpenStream size : 683 MiB (67%)
Audio #1ID : 189 (0xBD)-137 (0x89)Format : DTSFormat/Info : Digital Theater SystemsFormat profile : 96/24 / CoreMode : 16Format settings, Endianness : BigMuxing mode : DVD-VideoDuration : 14 min 42 sBit rate mode : ConstantBit rate : 1 510 kb/sChannel(s) : 6 channelsChannel positions : Front: L C R, Side: L R, LFESampling rate : 96.0 kHz / 48.0 kHzFrame rate : 93.750 FPS (512 SPF)Bit depth : 24 bitsCompression mode : LossyDelay relative to video : -525 msStream size : 159 MiB (16%)
Audio #2ID : 189 (0xBD)-160 (0xA0)Format : PCMFormat settings, Endianness : BigFormat settings, Sign : SignedMuxing mode : DVD-VideoDuration : 14 min 42 sBit rate mode : ConstantBit rate : 1 536 kb/sChannel(s) : 2 channelsSampling rate : 48.0 kHzBit depth : 16 bitsDelay relative to video : -517 msStream size : 162 MiB (16%)
Menu
GeneralComplete name : N:\Music Video\DVD\Peter Maffay - MTV Unplugged\DVD1\VIDEO_TS\VTS_01_3.VOBFormat : MPEG-PSFile size : 1 024 MiBDuration : 14 min 44 sOverall bit rate mode : VariableOverall bit rate : 9 717 kb/s
VideoID : 224 (0xE0)Format : MPEG VideoFormat version : Version 2Format profile : Main@MainFormat settings, BVOP : YesFormat settings, Matrix : CustomFormat settings, GOP : M=3, N=15Format settings, picture structure : FrameDuration : 14 min 43 sBit rate mode : VariableBit rate : 6 478 kb/sMaximum bit rate : 9 800 kb/sWidth : 720 pixelsHeight : 576 pixelsDisplay aspect ratio : 16:9Frame rate : 25.000 FPSStandard : PALColor space : YUVChroma subsampling : 4:2:0Bit depth : 8 bitsScan type : InterlacedScan order : Top Field FirstCompression mode : LossyBits/(Pixel*Frame) : 0.625Time code of first frame : 01:29:26:03Time code source : Group of pictures headerGOP, Open/Closed : OpenStream size : 682 MiB (67%)
Audio #1ID : 189 (0xBD)-137 (0x89)Format : DTSFormat/Info : Digital Theater SystemsFormat profile : 96/24 / CoreMode : 16Format settings, Endianness : BigMuxing mode : DVD-VideoDuration : 14 min 44 sBit rate mode : ConstantBit rate : 1 510 kb/sChannel(s) : 6 channelsChannel positions : Front: L C R, Side: L R, LFESampling rate : 96.0 kHz / 48.0 kHzFrame rate : 93.750 FPS (512 SPF)Bit depth : 24 bitsCompression mode : LossyDelay relative to video : -824 msStream size : 159 MiB (16%)
Audio #2ID : 189 (0xBD)-160 (0xA0)Format : PCMFormat settings, Endianness : BigFormat settings, Sign : SignedMuxing mode : DVD-VideoDuration : 14 min 44 sBit rate mode : ConstantBit rate : 1 536 kb/sChannel(s) : 2 channelsSampling rate : 48.0 kHzBit depth : 16 bitsDelay relative to video : -833 msStream size : 162 MiB (16%)
Menu
GeneralComplete name : N:\Music Video\DVD\Peter Maffay - MTV Unplugged\DVD1\VIDEO_TS\VTS_01_4.VOBFormat : MPEG-PSFile size : 1 024 MiBDuration : 14 min 44 sOverall bit rate mode : VariableOverall bit rate : 9 709 kb/s
VideoID : 224 (0xE0)Format : MPEG VideoFormat version : Version 2Format profile : Main@MainFormat settings, BVOP : YesFormat settings, Matrix : CustomFormat settings, GOP : M=3, N=15Format settings, picture structure : FrameDuration : 14 min 44 sBit rate mode : VariableBit rate : 6 470 kb/sMaximum bit rate : 9 800 kb/sWidth : 720 pixelsHeight : 576 pixelsDisplay aspect ratio : 16:9Frame rate : 25.000 FPSStandard : PALColor space : YUVChroma subsampling : 4:2:0Bit depth : 8 bitsScan type : InterlacedScan order : Top Field FirstCompression mode : LossyBits/(Pixel*Frame) : 0.624Time code of first frame : 01:44:10:05Time code source : Group of pictures headerGOP, Open/Closed : OpenStream size : 682 MiB (67%)
Audio #1ID : 189 (0xBD)-137 (0x89)Format : DTSFormat/Info : Digital Theater SystemsFormat profile : 96/24 / CoreMode : 16Format settings, Endianness : BigMuxing mode : DVD-VideoDuration : 14 min 44 sBit rate mode : ConstantBit rate : 1 510 kb/sChannel(s) : 6 channelsChannel positions : Front: L C R, Side: L R, LFESampling rate : 96.0 kHz / 48.0 kHzFrame rate : 93.750 FPS (512 SPF)Bit depth : 24 bitsCompression mode : LossyDelay relative to video : -883 msStream size : 159 MiB (16%)
Audio #2ID : 189 (0xBD)-160 (0xA0)Format : PCMFormat settings, Endianness : BigFormat settings, Sign : SignedMuxing mode : DVD-VideoDuration : 14 min 44 sBit rate mode : ConstantBit rate : 1 536 kb/sChannel(s) : 2 channelsSampling rate : 48.0 kHzBit depth : 16 bitsDelay relative to video : -890 msStream size : 162 MiB (16%)
Menu
GeneralComplete name : N:\Music Video\DVD\Peter Maffay - MTV Unplugged\DVD1\VIDEO_TS\VTS_01_5.VOBFormat : MPEG-PSFile size : 1 024 MiBDuration : 14 min 42 sOverall bit rate mode : VariableOverall bit rate : 9 739 kb/s
VideoID : 224 (0xE0)Format : MPEG VideoFormat version : Version 2Format profile : Main@MainFormat settings, BVOP : YesFormat settings, Matrix : CustomFormat settings, GOP : M=3, N=15Format settings, picture structure : FrameDuration : 14 min 41 sBit rate mode : VariableBit rate : 6 499 kb/sMaximum bit rate : 9 800 kb/sWidth : 720 pixelsHeight : 576 pixelsDisplay aspect ratio : 16:9Frame rate : 25.000 FPSStandard : PALColor space : YUVChroma subsampling : 4:2:0Bit depth : 8 bitsScan type : InterlacedScan order : Top Field FirstCompression mode : LossyBits/(Pixel*Frame) : 0.627Time code of first frame : 01:58:54:22Time code source : Group of pictures headerGOP, Open/Closed : OpenStream size : 683 MiB (67%)
Audio #1ID : 189 (0xBD)-137 (0x89)Format : DTSFormat/Info : Digital Theater SystemsFormat profile : 96/24 / CoreMode : 16Format settings, Endianness : BigMuxing mode : DVD-VideoDuration : 14 min 42 sBit rate mode : ConstantBit rate : 1 510 kb/sChannel(s) : 6 channelsChannel positions : Front: L C R, Side: L R, LFESampling rate : 96.0 kHz / 48.0 kHzFrame rate : 93.750 FPS (512 SPF)Bit depth : 24 bitsCompression mode : LossyDelay relative to video : -859 msStream size : 159 MiB (16%)
Audio #2ID : 189 (0xBD)-160 (0xA0)Format : PCMFormat settings, Endianness : BigFormat settings, Sign : SignedMuxing mode : DVD-VideoDuration : 14 min 42 sBit rate mode : ConstantBit rate : 1 536 kb/sChannel(s) : 2 channelsSampling rate : 48.0 kHzBit depth : 16 bitsDelay relative to video : -858 msStream size : 162 MiB (16%)
Menu
GeneralComplete name : N:\Music Video\DVD\Peter Maffay - MTV Unplugged\DVD1\VIDEO_TS\VTS_01_6.VOBFormat : MPEG-PSFile size : 1 024 MiBDuration : 14 min 44 sOverall bit rate mode : VariableOverall bit rate : 9 711 kb/s
VideoID : 224 (0xE0)Format : MPEG VideoFormat version : Version 2Format profile : Main@MainFormat settings, BVOP : YesFormat settings, Matrix : CustomFormat settings, GOP : M=3, N=15Format settings, picture structure : FrameDuration : 14 min 44 sBit rate mode : VariableBit rate : 6 472 kb/sMaximum bit rate : 9 800 kb/sWidth : 720 pixelsHeight : 576 pixelsDisplay aspect ratio : 16:9Frame rate : 25.000 FPSStandard : PALColor space : YUVChroma subsampling : 4:2:0Bit depth : 8 bitsScan type : InterlacedScan order : Top Field FirstCompression mode : LossyBits/(Pixel*Frame) : 0.624Time code of first frame : 02:13:36:15Time code source : Group of pictures headerGOP, Open/Closed : OpenStream size : 682 MiB (67%)
Audio #1ID : 189 (0xBD)-137 (0x89)Format : DTSFormat/Info : Digital Theater SystemsFormat profile : 96/24 / CoreMode : 16Format settings, Endianness : BigMuxing mode : DVD-VideoDuration : 14 min 44 sBit rate mode : ConstantBit rate : 1 510 kb/sChannel(s) : 6 channelsChannel positions : Front: L C R, Side: L R, LFESampling rate : 96.0 kHz / 48.0 kHzFrame rate : 93.750 FPS (512 SPF)Bit depth : 24 bitsCompression mode : LossyDelay relative to video : -542 msStream size : 159 MiB (16%)
Audio #2ID : 189 (0xBD)-160 (0xA0)Format : PCMFormat settings, Endianness : BigFormat settings, Sign : SignedMuxing mode : DVD-VideoDuration : 14 min 44 sBit rate mode : ConstantBit rate : 1 536 kb/sChannel(s) : 2 channelsSampling rate : 48.0 kHzBit depth : 16 bitsDelay relative to video : -544 msStream size : 162 MiB (16%)
Menu
GeneralComplete name : N:\Music Video\DVD\Peter Maffay - MTV Unplugged\DVD1\VIDEO_TS\VTS_01_7.VOBFormat : MPEG-PSFile size : 1 024 MiBDuration : 14 min 49 sOverall bit rate mode : VariableOverall bit rate : 9 660 kb/s
VideoID : 224 (0xE0)Format : MPEG VideoFormat version : Version 2Format profile : Main@MainFormat settings, BVOP : YesFormat settings, Matrix : CustomFormat settings, GOP : M=3, N=15Format settings, picture structure : FrameDuration : 14 min 49 sBit rate mode : VariableBit rate : 6 422 kb/sMaximum bit rate : 9 800 kb/sWidth : 720 pixelsHeight : 576 pixelsDisplay aspect ratio : 16:9Frame rate : 25.000 FPSStandard : PALColor space : YUVChroma subsampling : 4:2:0Bit depth : 8 bitsScan type : InterlacedScan order : Top Field FirstCompression mode : LossyBits/(Pixel*Frame) : 0.619Time code of first frame : 02:28:21:01Time code source : Group of pictures headerGOP, Open/Closed : OpenGOP, Open/Closed of first frame : ClosedStream size : 681 MiB (66%)
Audio #1ID : 189 (0xBD)-137 (0x89)Format : DTSFormat/Info : Digital Theater SystemsFormat profile : 96/24 / CoreMode : 16Format settings, Endianness : BigMuxing mode : DVD-VideoDuration : 14 min 49 sBit rate mode : ConstantBit rate : 1 510 kb/sChannel(s) : 6 channelsChannel positions : Front: L C R, Side: L R, LFESampling rate : 96.0 kHz / 48.0 kHzFrame rate : 93.750 FPS (512 SPF)Bit depth : 24 bitsCompression mode : LossyDelay relative to video : -336 msStream size : 160 MiB (16%)
Audio #2ID : 189 (0xBD)-160 (0xA0)Format : PCMFormat settings, Endianness : BigFormat settings, Sign : SignedMuxing mode : DVD-VideoDuration : 14 min 49 sBit rate mode : ConstantBit rate : 1 536 kb/sChannel(s) : 2 channelsSampling rate : 48.0 kHzBit depth : 16 bitsDelay relative to video : -339 msStream size : 163 MiB (16%)
Menu
GeneralComplete name : N:\Music Video\DVD\Peter Maffay - MTV Unplugged\DVD1\VIDEO_TS\VTS_01_8.VOBFormat : MPEG-PSFile size : 751 MiBDuration : 10 min 43 sOverall bit rate mode : VariableOverall bit rate : 9 784 kb/s
VideoID : 224 (0xE0)Format : MPEG VideoFormat version : Version 2Format profile : Main@MainFormat settings, BVOP : YesFormat settings, Matrix : CustomFormat settings, GOP : M=3, N=15Format settings, picture structure : FrameDuration : 10 min 43 sBit rate mode : VariableBit rate : 6 544 kb/sMaximum bit rate : 9 800 kb/sWidth : 720 pixelsHeight : 576 pixelsDisplay aspect ratio : 16:9Frame rate : 25.000 FPSStandard : PALColor space : YUVChroma subsampling : 4:2:0Bit depth : 8 bitsScan type : InterlacedScan order : Top Field FirstCompression mode : LossyBits/(Pixel*Frame) : 0.631Time code of first frame : 02:43:10:09Time code source : Group of pictures headerGOP, Open/Closed : OpenStream size : 502 MiB (67%)
Audio #1ID : 189 (0xBD)-137 (0x89)Format : DTSFormat/Info : Digital Theater SystemsFormat profile : 96/24 / CoreMode : 16Format settings, Endianness : BigMuxing mode : DVD-VideoDuration : 10 min 43 sBit rate mode : ConstantBit rate : 1 510 kb/sChannel(s) : 6 channelsChannel positions : Front: L C R, Side: L R, LFESampling rate : 96.0 kHz / 48.0 kHzFrame rate : 93.750 FPS (512 SPF)Bit depth : 24 bitsCompression mode : LossyDelay relative to video : -563 msStream size : 116 MiB (15%)
Audio #2ID : 189 (0xBD)-160 (0xA0)Format : PCMFormat settings, Endianness : BigFormat settings, Sign : SignedMuxing mode : DVD-VideoDuration : 10 min 43 sBit rate mode : ConstantBit rate : 1 536 kb/sChannel(s) : 2 channelsSampling rate : 48.0 kHzBit depth : 16 bitsDelay relative to video : -560 msStream size : 118 MiB (16%)

Скриншоты меню

Скриншоты


DVD2
Разбивка на главы по трекам: есть
Качество : BD=>DVD5
Формат файла: DVD video
Видео кодек: MPEG2
Аудио кодек: PCM, DTS
Видео: PAL 16:9 (720x576) VBR Auto Letterboxed, 5262-6658(6800) Kbps, 25.000 fps
Аудио: Deutsch/English (LinearPCM, 2 ch), 1536 Kbps, 48.0 KHz
Аудио2: Deutsch/English (DTS, 6 ch), 1510 Kbps, 96.0 KHz, 24-bit (only Live)

DVDinfo+MI

Title: DVD2Size: 4.29 Gb ( 4 495 324,00 KBytes ) - DVD-5Enabled regions: 1, 2, 3, 4, 5, 6, 7, 8
VTS_01 : Play Length: 00:26:57+00:43:08 Video: PAL 16:9 (720x576) VBR, Auto Letterboxed Audio: Deutsch (LinearPCM, 2 ch) Deutsch (DTS, 6 ch)
* Menus Information *
VIDEO_TS MenuVideo: PAL 16:9 (720x576) VBR Auto LetterboxedAudio: Not specified (LinearPCM, 2 ch)English Language Unit : Title Menu
VTS_01 MenuVideo: PAL 16:9 (720x576) VBR Auto LetterboxedAudio: Not specified (LinearPCM, 2 ch)English Language Unit : Root Menu-GeneralComplete name : N:\Music Video\DVD\Peter Maffay - MTV Unplugged\DVD2\VIDEO_TS\VIDEO_TS.BUPFormat : DVD VideoFormat profile : MenuFile size : 12.0 KiBOverall bit rate mode : VariableFileExtension_Invalid : ifo
VideoID : 224 (0xE0)Format : MPEG VideoFormat version : Version 2Bit rate mode : VariableWidth : 720 pixelsHeight : 576 pixelsDisplay aspect ratio : 16:9Frame rate : 25.000 FPSStandard : PALCompression mode : Lossy
AudioFormat : PCMChannel(s) : 2 channelsSampling rate : 48.0 kHz
TextFormat : RLEFormat/Info : Run-length encodingBit depth : 2 bits
GeneralComplete name : N:\Music Video\DVD\Peter Maffay - MTV Unplugged\DVD2\VIDEO_TS\VIDEO_TS.IFOFormat : DVD VideoFormat profile : MenuFile size : 12.0 KiBOverall bit rate mode : Variable
VideoID : 224 (0xE0)Format : MPEG VideoFormat version : Version 2Bit rate mode : VariableWidth : 720 pixelsHeight : 576 pixelsDisplay aspect ratio : 16:9Frame rate : 25.000 FPSStandard : PALCompression mode : Lossy
AudioFormat : PCMChannel(s) : 2 channelsSampling rate : 48.0 kHz
TextFormat : RLEFormat/Info : Run-length encodingBit depth : 2 bits
GeneralComplete name : N:\Music Video\DVD\Peter Maffay - MTV Unplugged\DVD2\VIDEO_TS\VIDEO_TS.VOBFormat : MPEG-PSFile size : 7.28 MiBDuration : 8 s 0 msOverall bit rate mode : VariableOverall bit rate : 7 633 kb/s
VideoID : 224 (0xE0)Format : MPEG VideoFormat version : Version 2Format profile : Main@MainFormat settings, BVOP : YesFormat settings, Matrix : CustomFormat settings, GOP : M=3, N=15Format settings, picture structure : FrameDuration : 8 s 0 msBit rate mode : VariableBit rate : 5 945 kb/sMaximum bit rate : 8 000 kb/sWidth : 720 pixelsHeight : 576 pixelsDisplay aspect ratio : 16:9Frame rate : 25.000 FPSStandard : PALColor space : YUVChroma subsampling : 4:2:0Bit depth : 8 bitsScan type : InterlacedScan order : Top Field FirstCompression mode : LossyBits/(Pixel*Frame) : 0.573Time code of first frame : 00:00:00:00Time code source : Group of pictures headerGOP, Open/Closed : OpenGOP, Open/Closed of first frame : ClosedStream size : 5.67 MiB (78%)
AudioID : 189 (0xBD)-160 (0xA0)Format : PCMFormat settings, Endianness : BigFormat settings, Sign : SignedMuxing mode : DVD-VideoDuration : 7 s 730 msBit rate mode : ConstantBit rate : 1 536 kb/sChannel(s) : 2 channelsSampling rate : 48.0 kHzBit depth : 16 bitsStream size : 1.42 MiB (19%)
Text #1ID : 189 (0xBD)-32 (0x20)Format : RLEFormat/Info : Run-length encodingMuxing mode : DVD-Video
Text #2ID : 189 (0xBD)-34 (0x22)Format : RLEFormat/Info : Run-length encodingMuxing mode : DVD-Video
Menu
GeneralComplete name : N:\Music Video\DVD\Peter Maffay - MTV Unplugged\DVD2\VIDEO_TS\VTS_01_0.BUPFormat : DVD VideoFormat profile : ProgramFile size : 54.0 KiBDuration : 43 min 8 sOverall bit rate mode : VariableOverall bit rate : 171 b/sFileExtension_Invalid : ifo
VideoID : 224 (0xE0)Format : MPEG VideoFormat version : Version 2Duration : 43 min 8 sBit rate mode : VariableWidth : 720 pixelsHeight : 576 pixelsDisplay aspect ratio : 16:9Frame rate : 25.000 FPSStandard : PALCompression mode : Lossy
Audio #1ID : 0 (0x0)Format : PCMDuration : 43 min 8 sChannel(s) : 2 channelsSampling rate : 48.0 kHzLanguage : German
Audio #2ID : 137 (0x89)Format : DTSFormat/Info : Digital Theater SystemsChannel(s) : 6 channelsSampling rate : 0 HzCompression mode : LossyLanguage : German
Menu #1Duration : 26 min 57 s00:00:00.000 : Chapter 100:00:36.840 : Chapter 200:11:53.720 : Chapter 300:17:15.920 : Chapter 4List (Audio) : 0 / 1
Menu #2Duration : 43 min 8 s00:00:00.000 : Chapter 1List (Audio) : 0
Menu #3
GeneralComplete name : N:\Music Video\DVD\Peter Maffay - MTV Unplugged\DVD2\VIDEO_TS\VTS_01_0.IFOFormat : DVD VideoFormat profile : ProgramFile size : 54.0 KiBDuration : 43 min 8 sOverall bit rate mode : VariableOverall bit rate : 171 b/s
VideoID : 224 (0xE0)Format : MPEG VideoFormat version : Version 2Duration : 43 min 8 sBit rate mode : VariableWidth : 720 pixelsHeight : 576 pixelsDisplay aspect ratio : 16:9Frame rate : 25.000 FPSStandard : PALCompression mode : Lossy
Audio #1ID : 0 (0x0)Format : PCMDuration : 43 min 8 sChannel(s) : 2 channelsSampling rate : 48.0 kHzLanguage : German
Audio #2ID : 137 (0x89)Format : DTSFormat/Info : Digital Theater SystemsChannel(s) : 6 channelsSampling rate : 0 HzCompression mode : LossyLanguage : German
Menu #1Duration : 26 min 57 s00:00:00.000 : Chapter 100:00:36.840 : Chapter 200:11:53.720 : Chapter 300:17:15.920 : Chapter 4List (Audio) : 0 / 1
Menu #2Duration : 43 min 8 s00:00:00.000 : Chapter 1List (Audio) : 0
Menu #3
GeneralComplete name : N:\Music Video\DVD\Peter Maffay - MTV Unplugged\DVD2\VIDEO_TS\VTS_01_0.VOBFormat : MPEG-PSFile size : 195 MiBDuration : 1 min 11 sOverall bit rate mode : VariableOverall bit rate : 23.0 Mb/s
VideoID : 224 (0xE0)Format : MPEG VideoFormat version : Version 2Format profile : Main@MainFormat settings, BVOP : YesFormat settings, Matrix : CustomFormat settings, GOP : M=3, N=15Format settings, picture structure : FrameDuration : 1 min 11 sBit rate mode : VariableBit rate : 21.0 Mb/sMaximum bit rate : 8 000 kb/sWidth : 720 pixelsHeight : 576 pixelsDisplay aspect ratio : 16:9Frame rate : 25.000 FPSStandard : PALColor space : YUVChroma subsampling : 4:2:0Bit depth : 8 bitsScan type : InterlacedScan order : Top Field FirstCompression mode : LossyBits/(Pixel*Frame) : 2.026Time code of first frame : 00:00:00:00Time code source : Group of pictures headerGOP, Open/Closed : OpenGOP, Open/Closed of first frame : ClosedStream size : 178 MiB (91%)
AudioID : 189 (0xBD)-160 (0xA0)Format : PCMFormat settings, Endianness : BigFormat settings, Sign : SignedMuxing mode : DVD-VideoDuration : 1 min 10 sBit rate mode : ConstantBit rate : 1 536 kb/sChannel(s) : 2 channelsSampling rate : 48.0 kHzBit depth : 16 bitsStream size : 13.0 MiB (7%)
Text #1ID : 189 (0xBD)-32 (0x20)Format : RLEFormat/Info : Run-length encodingMuxing mode : DVD-Video
Text #2ID : 189 (0xBD)-34 (0x22)Format : RLEFormat/Info : Run-length encodingMuxing mode : DVD-Video
Menu
GeneralComplete name : N:\Music Video\DVD\Peter Maffay - MTV Unplugged\DVD2\VIDEO_TS\VTS_01_1.VOBFormat : MPEG-PSFile size : 1 024 MiBDuration : 14 min 27 sOverall bit rate mode : VariableOverall bit rate : 9 901 kb/s
VideoID : 224 (0xE0)Format : MPEG VideoFormat version : Version 2Format profile : Main@MainFormat settings, BVOP : YesFormat settings, Matrix : CustomFormat settings, GOP : M=3, N=15Format settings, picture structure : FrameDuration : 14 min 27 sBit rate mode : VariableBit rate : 6 658 kb/sMaximum bit rate : 6 800 kb/sWidth : 720 pixelsHeight : 576 pixelsDisplay aspect ratio : 16:9Frame rate : 25.000 FPSStandard : PALColor space : YUVChroma subsampling : 4:2:0Bit depth : 8 bitsScan type : InterlacedScan order : Top Field FirstCompression mode : LossyBits/(Pixel*Frame) : 0.642Time code of first frame : 00:00:00:00Time code source : Group of pictures headerGOP, Open/Closed : OpenGOP, Open/Closed of first frame : ClosedStream size : 689 MiB (67%)
Audio #1ID : 189 (0xBD)-137 (0x89)Format : DTSFormat/Info : Digital Theater SystemsFormat profile : 96/24 / CoreMode : 16Format settings, Endianness : BigMuxing mode : DVD-VideoDuration : 14 min 27 sBit rate mode : ConstantBit rate : 1 510 kb/sChannel(s) : 6 channelsChannel positions : Front: L C R, Side: L R, LFESampling rate : 96.0 kHz / 48.0 kHzFrame rate : 93.750 FPS (512 SPF)Bit depth : 24 bitsCompression mode : LossyStream size : 156 MiB (15%)
Audio #2ID : 189 (0xBD)-160 (0xA0)Format : PCMFormat settings, Endianness : BigFormat settings, Sign : SignedMuxing mode : DVD-VideoDuration : 14 min 27 sBit rate mode : ConstantBit rate : 1 536 kb/sChannel(s) : 2 channelsSampling rate : 48.0 kHzBit depth : 16 bitsStream size : 159 MiB (16%)
Menu
GeneralComplete name : N:\Music Video\DVD\Peter Maffay - MTV Unplugged\DVD2\VIDEO_TS\VTS_01_2.VOBFormat : MPEG-PSFile size : 1 024 MiBOverall bit rate mode : Variable
VideoID : 224 (0xE0)Format : MPEG VideoFormat version : Version 2Format profile : Main@MainFormat settings, BVOP : YesFormat settings, Matrix : CustomFormat settings, GOP : M=3, N=15Format settings, picture structure : FrameBit rate mode : VariableMaximum bit rate : 6 800 kb/sWidth : 720 pixelsHeight : 576 pixelsDisplay aspect ratio : 16:9Frame rate : 25.000 FPSStandard : PALColor space : YUVChroma subsampling : 4:2:0Bit depth : 8 bitsScan type : InterlacedScan order : Top Field FirstCompression mode : LossyTime code of first frame : 00:14:27:23Time code source : Group of pictures headerGOP, Open/Closed : Open
Audio #1ID : 189 (0xBD)-137 (0x89)Format : DTSFormat/Info : Digital Theater SystemsFormat profile : 96/24 / CoreMode : 16Format settings, Endianness : BigMuxing mode : DVD-VideoBit rate mode : ConstantBit rate : 1 510 kb/sChannel(s) : 6 channelsChannel positions : Front: L C R, Side: L R, LFESampling rate : 96.0 kHz / 48.0 kHzFrame rate : 93.750 FPS (512 SPF)Bit depth : 24 bitsCompression mode : LossyDelay relative to video : -683 ms
Audio #2ID : 189 (0xBD)-160 (0xA0)Format : PCMFormat settings, Endianness : BigFormat settings, Sign : SignedMuxing mode : DVD-VideoBit rate mode : ConstantBit rate : 1 536 kb/sChannel(s) : 2 channelsSampling rate : 48.0 kHzBit depth : 16 bitsDelay relative to video : -690 ms
Menu
GeneralComplete name : N:\Music Video\DVD\Peter Maffay - MTV Unplugged\DVD2\VIDEO_TS\VTS_01_3.VOBFormat : MPEG-PSFile size : 1 024 MiBDuration : 18 min 47 sOverall bit rate mode : VariableOverall bit rate : 7 621 kb/s
VideoID : 224 (0xE0)Format : MPEG VideoFormat version : Version 2Format profile : Main@MainFormat settings, BVOP : YesFormat settings, Matrix : CustomFormat settings, GOP : M=3, N=15Format settings, picture structure : FrameDuration : 18 min 47 sBit rate mode : VariableBit rate : 5 933 kb/sMaximum bit rate : 6 800 kb/sWidth : 720 pixelsHeight : 576 pixelsDisplay aspect ratio : 16:9Frame rate : 25.000 FPSStandard : PALColor space : YUVChroma subsampling : 4:2:0Bit depth : 8 bitsScan type : InterlacedScan order : Top Field FirstCompression mode : LossyBits/(Pixel*Frame) : 0.572Time code of first frame : 00:02:38:17Time code source : Group of pictures headerGOP, Open/Closed : OpenGOP, Open/Closed of first frame : ClosedStream size : 797 MiB (78%)
AudioID : 189 (0xBD)-160 (0xA0)Format : PCMFormat settings, Endianness : BigFormat settings, Sign : SignedMuxing mode : DVD-VideoDuration : 18 min 47 sBit rate mode : ConstantBit rate : 1 536 kb/sChannel(s) : 2 channelsSampling rate : 48.0 kHzBit depth : 16 bitsDelay relative to video : -330 msStream size : 206 MiB (20%)
Menu
GeneralComplete name : N:\Music Video\DVD\Peter Maffay - MTV Unplugged\DVD2\VIDEO_TS\VTS_01_4.VOBFormat : MPEG-PSFile size : 1 024 MiBDuration : 19 min 52 sOverall bit rate mode : VariableOverall bit rate : 7 203 kb/s
VideoID : 224 (0xE0)Format : MPEG VideoFormat version : Version 2Format profile : Main@MainFormat settings, BVOP : YesFormat settings, Matrix : CustomFormat settings, GOP : M=3, N=15Format settings, picture structure : FrameDuration : 19 min 52 sBit rate mode : VariableBit rate : 5 524 kb/sMaximum bit rate : 6 800 kb/sWidth : 720 pixelsHeight : 576 pixelsDisplay aspect ratio : 16:9Frame rate : 25.000 FPSStandard : PALColor space : YUVChroma subsampling : 4:2:0Bit depth : 8 bitsScan type : InterlacedScan order : Top Field FirstCompression mode : LossyBits/(Pixel*Frame) : 0.533Time code of first frame : 00:21:25:20Time code source : Group of pictures headerGOP, Open/Closed : OpenStream size : 785 MiB (77%)
AudioID : 189 (0xBD)-160 (0xA0)Format : PCMFormat settings, Endianness : BigFormat settings, Sign : SignedMuxing mode : DVD-VideoDuration : 19 min 52 sBit rate mode : ConstantBit rate : 1 536 kb/sChannel(s) : 2 channelsSampling rate : 48.0 kHzBit depth : 16 bitsDelay relative to video : -435 msStream size : 218 MiB (21%)
Menu
GeneralComplete name : N:\Music Video\DVD\Peter Maffay - MTV Unplugged\DVD2\VIDEO_TS\VTS_01_5.VOBFormat : MPEG-PSFile size : 91.3 MiBDuration : 1 min 50 sOverall bit rate mode : VariableOverall bit rate : 6 936 kb/s
VideoID : 224 (0xE0)Format : MPEG VideoFormat version : Version 2Format profile : Main@MainFormat settings, BVOP : YesFormat settings, Matrix : CustomFormat settings, GOP : VariableFormat settings, picture structure : FrameDuration : 1 min 50 sBit rate mode : VariableBit rate : 5 262 kb/sMaximum bit rate : 6 800 kb/sWidth : 720 pixelsHeight : 576 pixelsDisplay aspect ratio : 16:9Frame rate : 25.000 FPSStandard : PALColor space : YUVChroma subsampling : 4:2:0Bit depth : 8 bitsScan type : InterlacedScan order : Top Field FirstCompression mode : LossyBits/(Pixel*Frame) : 0.507Time code of first frame : 00:41:18:10Time code source : Group of pictures headerStream size : 69.2 MiB (76%)
AudioID : 189 (0xBD)-160 (0xA0)Format : PCMFormat settings, Endianness : BigFormat settings, Sign : SignedMuxing mode : DVD-VideoDuration : 1 min 50 sBit rate mode : ConstantBit rate : 1 536 kb/sChannel(s) : 2 channelsSampling rate : 48.0 kHzBit depth : 16 bitsDelay relative to video : -482 msStream size : 20.2 MiB (22%)

Скриншоты меню

Скриншоты

-


[torrentc.info]_t_5560992.torrent
Торрент: Зарегистрирован ·  [ 2018-05-20 22:56 ] ·  b0fd75e58d78f45c075466efeb8aa2fde2fc53ed

63 KB

Статус: проверено
Скачан: 0 раз
Размер: 12.14 GB
Оценка: 
(Голосов: 0)
Сказали спасибо: 0  Спасибо
Похожие темы
[Профиль]    [ЛС]
Показать сообщения:    
Ответить на тему

Текущее время: Сегодня 08:58

Часовой пояс: GMT + 7



Вы не можете начинать темы
Вы не можете отвечать на сообщения
Вы не можете редактировать свои сообщения
Вы не можете удалять свои сообщения
Вы не можете голосовать в опросах
Вы не можете прикреплять файлы к сообщениям
Вы можете скачивать файлы