Битва за ФАУ-1 / Battle of the V-1 (Вернон Сьюэлл / Vernon Sewell) [1958, Великобритания, военный, драма, экранизация, DVDRip] [цветная версия] AVO (Рябов)

Ответить на тему
Статистика раздачи [Обновить пиров]
Размер:  1.46 GB   |    Зарегистрирован:  4 месяца 29 дней   |    Скачан:  0 раз

Полного источника не было: Никогда

 
   
 
 
 
Автор Сообщение

torrentc.info

Создавать темы 20-Май-2018 16:41

[Цитировать]

Битва за ФАУ-1 / Battle of the V-1 / цветная версия Страна: Великобритания
Жанр: военный, драма, экранизация
Год выхода: 1958
Продолжительность: 01:41:08
Перевод: Авторский (одноголосый закадровый) Сергей Рябов
Субтитры: нет
Оригинальная аудиодорожка: нет
Режиссер: Вернон Сьюэлл / Vernon Sewell
В ролях: Майкл Ренни, Патрисия Медина, Милли Витале, Кристофер Ли, Дэвид Найт, Эсмонд Найт, Джон Дж. Хеллер, Карл Джаффе, Питер Мэдден, Джордж Правда, Гордон Стерн, Карл Дьюринг, Хэролд Сиддонс, Джордж Пастелл, Генри Видон, Стэнли Зевич, Жан Конрад, Валери Уайт, Джеффри Чатер, Джулиан Сомерс
Описание: По роману "Они спасли Лондон" (1955) Б.Ч. Ньюмана.
1943 год, Польша. Поляк Тадеуш Павлик и его друг попадают на обязательные работы в немецкий трудовой лагерь. При перевозки очередной вагонетки с грудой отходов они замечают в ангаре странный самолет маленьких размеров, без винта и кабины пилота. Эти сведения они передают зубному лагерному врачу (агенту польской разведки), а уже тот через связного в Великобританию. Английская разведка сразу понимает, что это сверхсекретный полигон Пенемюнде. Первая же бомбардировка уничтожает цех по строительству новой модели ФАУ и накрывает задание в котором проводится конференция разработчиков. Немцы понимаю, что их раскрыли и начинают поиски агентов польской разведки...
Сюжет фильма основан на польско-английской спецоперации "Мост III". Тогда польское сопротивление в лице Армии Крайовы пыталось раздобыть максимум технической информации о ФАУ и неповрежденные образцы этого оружия немцев.
Доп. информация: Собственный рип. За Источник: Torrentc спасибо GORCHAK936. Спасибо Нордер за синхронизацию звука и alinto
Сэмпл: http://multi-up.com/1198804
Качество видео: DVDRip
Формат файла: AVI
Видео: XviD, 688x464 (1.48:1), 25.000 fps, 1872 kbps avg
Аудио: Russian AC3 Dolby Digital, 48 kHz, 2/0 (L,R) ch, 192.00 kbps avg

MediaInfo

GeneralComplete name : D:\Битва\Битва.за.ФАУ-1.1958.DVDRip.Coior.Рябов.aviFormat : AVIFormat/Info : Audio Video InterleaveFile size : 1.46 GiBDuration : 1 h 40 minOverall bit rate : 2 074 kb/sWriting application : VirtualDubModRus 1.5.10.2 (build 2542/release)Writing library : VirtualDubMod build 2542/release
VideoID : 0Format : MPEG-4 VisualFormat profile : Advanced Simple@L5Format settings : BVOP1 / Custom MatrixFormat settings, BVOP : 1Format settings, QPel : NoFormat settings, GMC : No warppointsFormat settings, Matrix : CustomCodec ID : XVIDCodec ID/Hint : XviDDuration : 1 h 40 minBit rate : 1 873 kb/sWidth : 688 pixelsHeight : 464 pixelsDisplay aspect ratio : 3:2Frame rate : 25.000 FPSColor space : YUVChroma subsampling : 4:2:0Bit depth : 8 bitsScan type : ProgressiveCompression mode : LossyBits/(Pixel*Frame) : 0.235Stream size : 1.32 GiB (90%)Writing library : XviD 73
AudioID : 1Format : AC-3Format/Info : Audio Coding 3Codec ID : 2000Duration : 1 h 40 minBit rate mode : ConstantBit rate : 192 kb/sChannel(s) : 2 channelsChannel positions : Front: L RSampling rate : 48.0 kHzFrame rate : 31.250 FPS (1536 SPF)Bit depth : 16 bitsCompression mode : LossyStream size : 138 MiB (9%)Alignment : Split accross interleavesInterleave, duration : 40 ms (1.00 video frame)Interleave, preload duration : 500 msService kind : Complete Main

Скриншоты



[torrentc.info]_t_5564008.torrent
Торрент: Зарегистрирован ·  [ 2018-05-20 16:41 ] ·  660a2fc34fe699e0fd9f4dd18c27312fd5faa753

15 KB

Статус: проверено
Скачан: 0 раз
Размер: 1.46 GB
Оценка: 
(Голосов: 0)
Сказали спасибо: 0  Спасибо
Похожие темы
[Профиль]    [ЛС]
Показать сообщения:    
Ответить на тему

Текущее время: Сегодня 22:59

Часовой пояс: GMT + 7



Вы не можете начинать темы
Вы не можете отвечать на сообщения
Вы не можете редактировать свои сообщения
Вы не можете удалять свои сообщения
Вы не можете голосовать в опросах
Вы не можете прикреплять файлы к сообщениям
Вы можете скачивать файлы