(Eclectic prog, Art rock, Songwriting) [CD] Martin Springett — The Gardening Club (1983) — 2017 reissue; FLAC (image+.cue), lossless

Ответить на тему
Статистика раздачи [Обновить пиров]
Размер:  849 MB   |    Зарегистрирован:  2 месяца 28 дней   |    Скачан:  0 раз

Полного источника не было: Никогда

 
   
 
 
 
Автор Сообщение

torrentc.info

Создавать темы 19-Май-2018 23:14

[Цитировать]

Martin Springett — The Gardening Club (1983) Жанр: Progressive rock/Eclectic prog; Art rock, Songwriting
Страна исполнителя: Canada
Год выхода диска: 2017
Производитель диска: UK (Gonzo Multimedia)
Номер по каталогу: HST468CD
Аудио кодек: FLAC
Тип рипа: image+.cue
Битрейт аудио: lossless
Продолжительность: 01:13:33
Наличие сканов в содержимом раздачи: да
Источник: Torrentc моя коллекция CD
Треклист:
01. Midnight Road [03:31.000]
02. Mole Hole Blues [03:23.093]
03. The Traveller [04:07.840]
04. Andromeda [05:15.173]
05. The Garden [02:03.893]
06. Three Days At Brighton [05:19.427]
07. Rebirth [04:45.920]
08. The Stone That Speaks [06:31.667]
09. Endersby’s Ride: Part 1. Endersby Meets The Team [03:50.053]
10. Endersby’s Ride: Part 2. Aerial Adventures [03:06.493]
11. Endersby’s Ride: Part 3. Endersby Meets The Chef [05:18.827]
12. Nirvana Isn’t [02:34.093]
13. After The Glow {*} [04:44.907]
14. Upside Down Blackbird {*} [06:25.320]
15. When You Live This Way {*} [03:20.720]
16. New York Moon {*} [06:04.053]
17. The Riddle Overture {*} [03:10.027]
Line-up:
Martin Springett — 12-string guitar, vocals, composition, arrangements
Ann Mortifee — voice
Monty Horton — guitar
Pat Coleman — guitar
David Wipper — guitar
Paul Blaney — bass
Paul Daiter — bass
John Sheard — keyboards
Bob Brough — soprano saxophone
Penner Mackay — drums, percussion
John Anderson — drums

Отчёт EAC

Exact Audio Copy V1.3 from 2. September 2016
Отчёт EAC об извлечении, выполненном 14. мая 2018, 13:07
Martin SPRINGETT / The Gardening Club
Дисковод: TSSTcorpCDDVDW SH-224DB Adapter: 1 ID: 0
Режим чтения : ДостоверностьИспользование точного потока : ДаОтключение кэша аудио : ДаИспользование указателей C2 : Нет
Коррекция смещения при чтении : 6Способность читать области Lead-in и Lead-out : НетЗаполнение пропущенных сэмплов тишиной : ДаУдаление блоков с тишиной в начале и конце : НетПри вычислениях CRC использовались нулевые сэмплы : ДаИнтерфейс : Встроенный Win32-интерфейс для Win NT/2000
Выходной формат : Внутренние WAV-операцииФормат файла сэмплов : 44.100 Гц; 16 бит; стерео
TOC извлечённого CD
Трек | Старт | Длительность | Начальный сектор | Конечный сектор --------------------------------------------------------------------- 1 | 0:00.00 | 3:31.00 | 0 | 15824 2 | 3:31.00 | 3:23.07 | 15825 | 31056 3 | 6:54.07 | 4:07.63 | 31057 | 49644 4 | 11:01.70 | 5:15.13 | 49645 | 73282 5 | 16:17.08 | 2:03.67 | 73283 | 82574 6 | 18:21.00 | 5:19.32 | 82575 | 106531 7 | 23:40.32 | 4:45.69 | 106532 | 127975 8 | 28:26.26 | 6:31.50 | 127976 | 157350 9 | 34:58.01 | 3:50.04 | 157351 | 174604 10 | 38:48.05 | 3:06.37 | 174605 | 188591 11 | 41:54.42 | 5:18.62 | 188592 | 212503 12 | 47:13.29 | 2:34.07 | 212504 | 224060 13 | 49:47.36 | 4:44.68 | 224061 | 245428 14 | 54:32.29 | 6:25.24 | 245429 | 274327 15 | 60:57.53 | 3:20.54 | 274328 | 289381 16 | 64:18.32 | 6:04.04 | 289382 | 316685 17 | 70:22.36 | 3:10.02 | 316686 | 330937
Характеристики диапазона извлечения и сообщения об ошибках
Выбранный диапазон
Имя файла D:\TEMP\Martin SPRINGETT - 1983 - The Gardening Club [2017 Gonzo Multimedia reissue, HST468CD].wav
Пиковый уровень 94.4 % Скорость извлечения 8.4 X Качество диапазона 100.0 % CRC теста 68778EAD CRC копии 68778EAD Копирование... OK
Ошибок не произошло
AccurateRip: сводка
Трек 1 отсутствует в базе данныхТрек 2 отсутствует в базе данныхТрек 3 отсутствует в базе данныхТрек 4 отсутствует в базе данныхТрек 5 отсутствует в базе данныхТрек 6 отсутствует в базе данныхТрек 7 отсутствует в базе данныхТрек 8 отсутствует в базе данныхТрек 9 отсутствует в базе данныхТрек 10 отсутствует в базе данныхТрек 11 отсутствует в базе данныхТрек 12 отсутствует в базе данныхТрек 13 отсутствует в базе данныхТрек 14 отсутствует в базе данныхТрек 15 отсутствует в базе данныхТрек 16 отсутствует в базе данныхТрек 17 отсутствует в базе данных
Ни одного трека нет в базе AccurateRip
Конец отчёта
==== Контрольная сумма отчёта CDC9130578D34F2D827DC099148B480A63A785D82232A6691752B2B0F0AB790C ====

CUE-файл для проигрывания (для WAV также имеется)

REM GENRE "Progressive Rock/Art Rock/Songwriting"REM DATE 1983REM DISCID E4113C11REM COMMENT "ExactAudioCopy v1.3"PERFORMER "Martin SPRINGETT"TITLE "The Gardening Club"FILE "Martin SPRINGETT - 1983 - The Gardening Club [2017 Gonzo Multimedia reissue, HST468CD].flac" WAVE TRACK 01 AUDIO TITLE "Midnight Road" PERFORMER "Martin SPRINGETT" INDEX 01 00:00:00 TRACK 02 AUDIO TITLE "Mole Hill Blues" PERFORMER "Martin SPRINGETT" INDEX 01 03:31:00 TRACK 03 AUDIO TITLE "The Traveller" PERFORMER "Martin SPRINGETT" INDEX 01 06:54:07 TRACK 04 AUDIO TITLE "Andromeda" PERFORMER "Martin SPRINGETT" INDEX 01 11:01:70 TRACK 05 AUDIO TITLE "The Garden" PERFORMER "Martin SPRINGETT" INDEX 01 16:17:08 TRACK 06 AUDIO TITLE "Three Days At Brighton" PERFORMER "Martin SPRINGETT" INDEX 01 18:21:00 TRACK 07 AUDIO TITLE "Rebirth" PERFORMER "Martin SPRINGETT" INDEX 01 23:40:32 TRACK 08 AUDIO TITLE "The Stone That Speaks" PERFORMER "Martin SPRINGETT" INDEX 01 28:26:26 TRACK 09 AUDIO TITLE "Endersby’s Ride: Part 1. Endersby Meets The Team" PERFORMER "Martin SPRINGETT" INDEX 01 34:58:01 TRACK 10 AUDIO TITLE "Endersby’s Ride: Part 2. Aerial Adventures" PERFORMER "Martin SPRINGETT" INDEX 01 38:48:05 TRACK 11 AUDIO TITLE "Endersby’s Ride: Part 3. Endersby Meets The Chef" PERFORMER "Martin SPRINGETT" INDEX 01 41:54:42 TRACK 12 AUDIO TITLE "Nirvana Isn’t" PERFORMER "Martin SPRINGETT" INDEX 01 47:13:29 TRACK 13 AUDIO TITLE "After The Glow
  • " PERFORMER "Martin SPRINGETT" INDEX 01 49:47:36 TRACK 14 AUDIO TITLE "Upside Down Blackbird
  • " PERFORMER "Martin SPRINGETT" INDEX 01 54:32:29 TRACK 15 AUDIO TITLE "When You Live This Way
  • " PERFORMER "Martin SPRINGETT" INDEX 01 60:57:53 TRACK 16 AUDIO TITLE "New York Moon
  • " PERFORMER "Martin SPRINGETT" INDEX 01 64:18:32 TRACK 17 AUDIO TITLE "The Riddle Overture
  • " PERFORMER "Martin SPRINGETT" INDEX 01 70:22:36

Матрица CD

Динамический диапазон

foobar2000 1.3.17 / Dynamic Range Meter 1.1.1log date: 2018-05-14 13:32:46
--------------------------------------------------------------------------------Analyzed: Martin SPRINGETT / The Gardening Club--------------------------------------------------------------------------------
DR Peak RMS Duration Track--------------------------------------------------------------------------------DR10 -0.50 dB -12.49 dB 3:31 01-Midnight RoadDR10 -0.50 dB -12.81 dB 3:23 02-Mole Hill BluesDR12 -0.50 dB -14.21 dB 4:08 03-The TravellerDR10 -0.50 dB -12.78 dB 5:15 04-AndromedaDR11 -0.50 dB -15.62 dB 2:04 05-The GardenDR10 -0.50 dB -12.55 dB 5:19 06-Three Days At BrightonDR10 -0.50 dB -12.28 dB 4:46 07-RebirthDR11 -0.50 dB -15.11 dB 6:32 08-The Stone That SpeaksDR11 -0.50 dB -13.58 dB 3:50 09-Endersby’s Ride: Part 1. Endersby Meets The TeamDR10 -0.50 dB -13.01 dB 3:06 10-Endersby’s Ride: Part 2. Aerial AdventuresDR9 -0.50 dB -12.52 dB 5:19 11-Endersby’s Ride: Part 3. Endersby Meets The ChefDR11 -0.50 dB -15.26 dB 2:34 12-Nirvana Isn’tDR11 -0.50 dB -13.34 dB 4:45 13-After The Glow
  • DR10 -0.50 dB -13.93 dB 6:25 14-Upside Down Blackbird
  • DR9 -0.50 dB -11.50 dB 3:21 15-When You Live This Way
  • DR10 -0.50 dB -12.11 dB 6:04 16-New York Moon
  • DR11 -0.50 dB -12.79 dB 3:10 17-The Riddle Overture
  • --------------------------------------------------------------------------------
    Number of tracks: 17Official DR value: DR10
    Samplerate: 44100 HzChannels: 2Bits per sample: 16Bitrate: 797 kbpsCodec: FLAC================================================================================

-
Краткая информацияDiscogsМартин Спрингетт — канадский музыкант-песенник и художник-иллюстратор. В 1983 году записал свой дебютный альбом в жанре прога. Вроде записывается и сейчас, но дебют остаётся лучшим в его дискографии. Не без признаков восьмидесятничества, но это наиболее сильно проявляется в бонусах к этому альбому, скорее всего записанных позже.
Свой талант художника проявил и в оформлении диска, создав пожалуй одну из самых красивых обложек прог-альбомов. Переиздание содержит довольно жирный буклет (24 страницы) с другими его работами.
-

Мои раздачи в разделах “Jazz Fusion” и “Avant-Garde Jazz, Free Improvisation”

[Jazz Fusion]
AHVENLAHTI, Olli: “Bandstand” (1975), “The Poet” (1976)
CATALYST: The Complete Recordings Vol. 1 & 2
DE BRUYNE, Koen: “Here Comes The Crazy Man!” (1974)
FORTY SEVEN TIMES ITS OWN WEIGHT: “Cumulo Nimbus” (1975)
Henry LOWTHER Band: “Child Song” (1970)
KASZAKŐ: “Édenkert” (1983)
KEYBOARD CIRCLE, THE: “1976” (1976)
LAFERRIÈRE, Yves: “Yves Laferrière” (1978)
LIEVONEN, Make: “Make Lievonen” (1977)
MAJOR SURGERY: “The First Cut” (1976)
MALOO: “Spaces Of Reflection” (1976), “All About The Things” (1977–78)
Miho Kei & JAZZ ELEVEN: “Kokezaru Kumikyoku” (1971)
PLACEBO (Marc Moulin): “Ball Of Eyes” (1971), “1973” (1973), “Placebo” (1974)
SOLIS LACUS: “Solis Lacus” (1975)
TEE & COMPANY: “Sonnet”/“Dragon Garden”/“Spanish Flower” (1978)
WAGNON, Marc: “Shadowlines” (1988), “An Afterthought” (1999), “Conjunction” (2001), “Earth Is A Cruel Master” (2010)
[Avant-Garde Jazz, Free Improvisation]
COLLECTIF MU: “Don Quichotte” (1997)
Keith TIPPETT Group, The: “You Are Here... I Am There” (1970), “Dedicated To You, But You Weren’t Listening” (1971)
PERCEPTION (Yochk’o Seffer,...): “Perception” (1971), “Perception & Friends” (1972), “Mestari” (1973)
Зацените!

Мои раздачи в жанре Прог-Электроники и близких к ней

AGUILAR, Ildefonso: “Erósion” (1978)
BESOMBES, Philippe: “Libra” (1975), “Pôle” (1975), “Ceci Est Celà” (1979)
BLAKE, Tim: “Crystal Machine” (1977), “Blake’s New Jerusalem” (1978)
COSMIC GROUND: “Cosmic Ground” (2014)
COZMIC CORRIDORS: “Cozmic Corridors” (1973)
ELEKTRIKTUS: “Electronic Mind Waves” (1976)
GALACTIC EXPLORERS: “Epitaph For Venus” (1972)
GRANCHER, Philippe: “3000 Miles Away” (1975)
GUÉRIN, Jean: “Tacet” (1971)
JONATHAN: “Jonathan” (1978)
KARG, Jürgen: “Elektronische Mythen” (1977)
KLUSTER (Moebius/Roedelius/Schnitzler): “Klорfzeichen” (1970), “Zwеi Ostеrеi” & “Eruрtiоn” (1971)
KOSUGI, Takehisa: “Catch-Wave” (1975)
MOOLAH: “Woe Ye Demons Possessed” (1974)
NAZGÛL, THE: “The Nazgûl” (1975)
OSE: “Adonia” (1978)
SCHULZE, Klaus: “Shadowlands” (2013)
SEESSELBERG, Eckhart & Wolf-J.: “Synthetik 1” (1973)
SPACECRAFT: “Paradoxe” (1978)
SYRINX: “Syrinx” (1970), “Long Lost Relatives” (1971)
TAKADA, Midori: “Through The Looking Glass” (1983)
VANGELIS: “Heaven And Hell” (1975), “Albedo 0.39” (1976), “Spiral” (1977), “Beaubourg” (1978), “Direct” (1988)
VANGELIS: “Delectus: The Polydor & Vertigo Recordings, 1973–1985” (2017, 13CD box)
VIAN, Patrick: “Bruits et Temps Analogues” (1976)
ZANOV: “Virtual Future” (2014), “Open Worlds” (2016)
ZANOV: “Green Ray” (1976), “Moebius 256 301” (1977), “In Course Of Time” (1982)
Z / Bernard SZajner: “Visions Of Dune” (1979)
Зацените!
-
Всех благодарю за внимание!


[torrentc.info]_t_5562379.torrent
Торрент: Зарегистрирован ·  [ 2018-05-19 23:11 ] ·  df794c08e95c4c6dc6424906a51a74c8219cf571

19 KB

Статус: проверено
Скачан: 0 раз
Размер: 849 MB
Оценка: 
(Голосов: 0)
Сказали спасибо: 0  Спасибо
Похожие темы
[Профиль]    [ЛС]
Показать сообщения:    
Ответить на тему

Текущее время: Сегодня 10:18

Часовой пояс: GMT + 7



Вы не можете начинать темы
Вы не можете отвечать на сообщения
Вы не можете редактировать свои сообщения
Вы не можете удалять свои сообщения
Вы не можете голосовать в опросах
Вы не можете прикреплять файлы к сообщениям
Вы можете скачивать файлы