(Crossover Prog) [WEB] Gazpacho - Soyuz - 2018, FLAC (tracks), lossless

Ответить на тему
Статистика раздачи [Обновить пиров]
Размер:  246 MB   |    Зарегистрирован:  4 месяца 29 дней   |    Скачан:  0 раз

Полного источника не было: Никогда

 
   
 
 
 
Автор Сообщение

torrentc.info

Создавать темы 19-Май-2018 23:14

[Цитировать]

-Gazpacho / Soyuz- -
Жанр: Crossover Prog
Носитель: WEB
Год издания: 2018
Издатель (лейбл): kscope
Страна исполнителя (группы): Norway
Аудиокодек: FLAC (*.flac)
Тип рипа: tracks
Битрейт аудио: lossless
Продолжительность: 47:59
Источник (релизер): WEB
Наличие сканов в содержимом раздачи: нет 01. Soyuz One (6:19)
02. Hypomania (3:46)
03. Exit Suite (3:42)
04. Emperor Bespoke (7:45)
05. Sky Burial (4:27)
06. Fleeting Things (4:25)
07. Soyuz Out (13:27)
08. Rappaccini (4:07)

Лог проверки качества

-----------------------
DON'T MODIFY THIS FILE
-----------------------
PERFORMER: auCDtect Task Manager, ver. 1.6.0 RC1 build 1.6.0.1Copyright (c) 2008-2010 y-soft. All rights reservedhttp://y-soft.org
ANALYZER: auCDtect: CD records authenticity detector, version 0.8.2Copyright (c) 2004 Oleg Berngardt. All rights reserved.Copyright (c) 2004 Alexander Djourik. All rights reserved.
FILE: 08. Rappaccini.flac Size: 20452944 Hash: EAE32E07764267BFA97588A1847E65DB Accuracy: -m0 Conclusion: CDDA 100% Signature: F1F92F33B464EDB1B6D98950EFB9CD8DF44F6ABCFILE: 07. Soyuz Out.flac Size: 69613989 Hash: 2108B65A0054B95F835A63B449F990F6 Accuracy: -m0 Conclusion: CDDA 100% Signature: 4F878E99C3CF625A04D9BA05554FFA84C16ECF40FILE: 06. Fleeting Things.flac Size: 23035598 Hash: 6B7DD71BC7D1008E14B807ADCB8B56D8 Accuracy: -m0 Conclusion: CDDA 100% Signature: CA868E0BBD49D3BD28BB5277152CCF687FEE6028FILE: 05. Sky Burial.flac Size: 26882234 Hash: 89E89685F11A2BB46B1553F1443A932F Accuracy: -m0 Conclusion: CDDA 100% Signature: CCA3DDC66FE756AE08842FDAB73F0F9FE88F9E39FILE: 04. Emperor Bespoke.flac Size: 44736986 Hash: 8C6D8AC79D47A730A8DACD35CA77EEB6 Accuracy: -m0 Conclusion: CDDA 100% Signature: 5757C98AE365E0C0B53A17D6E444C15A4D667D5BFILE: 03. Exit Suite.flac Size: 16910406 Hash: 986C28F95C46517921BC1CF988736713 Accuracy: -m0 Conclusion: CDDA 100% Signature: D2C69CC307CF706C408FF47F9E14E6BEBA3CA168FILE: 02. Hypomania.flac Size: 23504287 Hash: 31D012B1D810384B241DD5D39B77D35D Accuracy: -m0 Conclusion: CDDA 100% Signature: 531889278B887F0BEE8F4B1D634CD0183E4440B3FILE: 01. Soyuz One.flac Size: 32796482 Hash: A045FE519E6327EAB44671E8A5355A2E Accuracy: -m0 Conclusion: CDDA 100% Signature: 02117232F22DB7075DFE694526E34E3ADC8F7868

Лог DRM

foobar2000 1.3.9 / Dynamic Range Meter 1.1.1log date: 2018-05-17 21:25:15
--------------------------------------------------------------------------------Analyzed: Gazpacho / Soyuz--------------------------------------------------------------------------------
DR Peak RMS Duration Track--------------------------------------------------------------------------------DR12 0.00 dB -14.82 dB 6:19 01-Soyuz OneDR12 -1.26 dB -15.80 dB 3:46 02-HypomaniaDR14 0.00 dB -18.23 dB 3:42 03-Exit SuiteDR13 -0.02 dB -16.19 dB 7:45 04-Emperor BespokeDR13 -0.43 dB -16.23 dB 4:27 05-Sky BurialDR13 -0.03 dB -16.89 dB 4:25 06-Fleeting ThingsDR13 -0.03 dB -17.00 dB 13:27 07-Soyuz OutDR11 -2.54 dB -17.93 dB 4:07 08-Rappaccini--------------------------------------------------------------------------------
Number of tracks: 8Official DR value: DR13
Samplerate: 44100 HzChannels: 2Bits per sample: 16Bitrate: 656 kbpsCodec: FLAC================================================================================
--

Состав

- Jan Henrik Ohme / vocals
- Jon-Arne Vilbo / guitars
- Thomas Andersen / keyboards
- Mikael Krømer / violin, mandolin
- Kristian Torp / bass
- Lars Erik Asp / drums


[torrentc.info]_t_5563072.torrent
Торрент: Зарегистрирован ·  [ 2018-05-19 23:11 ] ·  46b9d2127d3540f7785db51b6b540f1099459380

20 KB

Статус: проверено
Скачан: 0 раз
Размер: 246 MB
Оценка: 
(Голосов: 0)
Сказали спасибо: 0  Спасибо
Похожие темы
[Профиль]    [ЛС]
Показать сообщения:    
Ответить на тему

Текущее время: Сегодня 08:28

Часовой пояс: GMT + 7



Вы не можете начинать темы
Вы не можете отвечать на сообщения
Вы не можете редактировать свои сообщения
Вы не можете удалять свои сообщения
Вы не можете голосовать в опросах
Вы не можете прикреплять файлы к сообщениям
Вы можете скачивать файлы