(Art Rock, Canterbury) [CD] Kevin Ayers - Songs For Insane Times: An Anthology, 1969-1980 (4 CD) - 2008, FLAC (tracks+.cue), lossless

Ответить на тему
Статистика раздачи [Обновить пиров]
Размер:  1.57 GB   |    Зарегистрирован:  2 месяца 28 дней   |    Скачан:  0 раз

Полного источника не было: Никогда

 
   
 
 
 
Автор Сообщение

torrentc.info

Создавать темы 19-Май-2018 23:14

[Цитировать]

Kevin Ayers - Songs For Insane Times: An Anthology, 1969-1980 (4 CD)

Жанр: Art Rock, Canterbury | Носитель: CD
Год издания: 2008 | Издатель (лейбл): Harvest/EMI Records | Номер по каталогу: 521 5570
Аудиокодек: FLAC (*.flac) | Тип рипа: tracks+.cue | Битрейт аудио: lossless
Продолжительность: 04:42:23 | Источник (релизер): ruskaval
Наличие сканов в содержимом раздачи: да
 
 

Disc 1 (72:47)

Треклист:
01. Town Feeling (4:54)
02. Song for Insane Times (4:04)
03. Girl on a Swing (2:52)
04. The Lady Rachel (5:21)
05. Stop This Train (Again Doing It) (6:09)
06. Eleanor's Cake (Which Ate Her) (2:56)
07. Religious Experience (Singing a Song in the Morning) (Feat. Syd Barrett) (4:47)
08. Soon Soon Soon (3:24)
09. Rheinhardt & Geraldine, Colores Para Delores (5:41)
10. May I (4:03)
11. Clarence in Wonderland (2:08)
12. The Oyster and the Flying Fish (2:40)
13. Shooting at the Moon (5:50)
14. Butterfly Dance (3:46)
15. Gemini Child (3:17)
16. Stars (3:33)
17. There is Loving, Among Us, There is Loving (7:22)
 

Лог создания рипа

Exact Audio Copy V1.0 beta 3 from 29. August 2011
EAC extraction logfile from 13. October 2011, 17:12
Kevin Ayers / Songs for Insane Times (Disc 1)
Used drive : BENQ DVD DD DW1640 Adapter: 1 ID: 1
Read mode : SecureUtilize accurate stream : YesDefeat audio cache : YesMake use of C2 pointers : No
Read offset correction : 618Overread into Lead-In and Lead-Out : NoFill up missing offset samples with silence : YesDelete leading and trailing silent blocks : NoNull samples used in CRC calculations : YesUsed interface : Native Win32 interface for Win NT & 2000Gap handling : Appended to previous track
Used output format : User Defined EncoderSelected bitrate : 768 kBit/sQuality : HighAdd ID3 tag : NoCommand line compressor : C:\Program Files\Exact Audio Copy\FLAC\FLAC.EXEAdditional command line options : -8 -V -T "ARTIST=%artist%" -T "TITLE=%title%" -T "ALBUM=%albumtitle%" -T "DATE=%year%" -T "TRACKNUMBER=%tracknr%" -T "GENRE=%genre%" -T "COMMENT=%comment%" -T "BAND=%albuminterpret%" -T "ALBUMARTIST=%albuminterpret%" -T "COMPOSER=%composer%" %haslyrics%--tag-from-file=LYRICS="%lyricsfile%"%haslyrics% -T "DISCNUMBER=%cdnumber%" -T "TOTALDISCS=%totalcds%" -T "TOTALTRACKS=%numtracks%" %hascover%--picture="%coverfile%"%hascover% %source% -o %dest%
TOC of the extracted CD
Track | Start | Length | Start sector | End sector --------------------------------------------------------- 1 | 0:00.00 | 4:54.11 | 0 | 22060 2 | 4:54.11 | 4:03.53 | 22061 | 40338 3 | 8:57.64 | 2:52.17 | 40339 | 53255 4 | 11:50.06 | 5:20.41 | 53256 | 77296 5 | 17:10.47 | 6:08.65 | 77297 | 104961 6 | 23:19.37 | 2:56.32 | 104962 | 118193 7 | 26:15.69 | 4:46.58 | 118194 | 139701 8 | 31:02.52 | 3:23.57 | 139702 | 154983 9 | 34:26.34 | 5:41.24 | 154984 | 180582 10 | 40:07.58 | 4:02.68 | 180583 | 198800 11 | 44:10.51 | 2:08.37 | 198801 | 208437 12 | 46:19.13 | 2:40.27 | 208438 | 220464 13 | 48:59.40 | 5:49.54 | 220465 | 246693 14 | 54:49.19 | 3:45.67 | 246694 | 263635 15 | 58:35.11 | 3:17.00 | 263636 | 278410 16 | 61:52.11 | 3:33.24 | 278411 | 294409 17 | 65:25.35 | 7:21.55 | 294410 | 327539
Track 1
Filename C:\@Rips@\Kevin Ayers - Songs For Insane Times (An Anthology 1969-1980) (2008) [FLAC]\Disc 1\01 - Town Feeling.wav
Pre-gap length 0:00:02.00
Peak level 82.1 % Extraction speed 4.7 X Track quality 99.9 % Test CRC 9C772247 Copy CRC 9C772247 Accurately ripped (confidence 7) [B2B77F01] (AR v1) Copy OK
Track 2
Filename C:\@Rips@\Kevin Ayers - Songs For Insane Times (An Anthology 1969-1980) (2008) [FLAC]\Disc 1\02 - Song for Insane Times.wav
Pre-gap length 0:00:01.59
Peak level 87.3 % Extraction speed 5.0 X Track quality 99.9 % Test CRC B2B8F4A5 Copy CRC B2B8F4A5 Accurately ripped (confidence 7) [3A01F5CE] (AR v1) Copy OK
Track 3
Filename C:\@Rips@\Kevin Ayers - Songs For Insane Times (An Anthology 1969-1980) (2008) [FLAC]\Disc 1\03 - Girl on a Swing.wav
Pre-gap length 0:00:01.72
Peak level 76.0 % Extraction speed 5.9 X Track quality 100.0 % Test CRC 95414982 Copy CRC 95414982 Accurately ripped (confidence 7) [068858E7] (AR v1) Copy OK
Track 4
Filename C:\@Rips@\Kevin Ayers - Songs For Insane Times (An Anthology 1969-1980) (2008) [FLAC]\Disc 1\04 - The Lady Rachel.wav
Pre-gap length 0:00:02.01
Peak level 73.2 % Extraction speed 6.8 X Track quality 100.0 % Test CRC 5F6E843B Copy CRC 5F6E843B Accurately ripped (confidence 7) [F8C7195B] (AR v1) Copy OK
Track 5
Filename C:\@Rips@\Kevin Ayers - Songs For Insane Times (An Anthology 1969-1980) (2008) [FLAC]\Disc 1\05 - Stop This Train (Again Doing it).wav
Pre-gap length 0:00:02.19
Peak level 72.7 % Extraction speed 6.6 X Track quality 99.9 % Test CRC 4287E126 Copy CRC 4287E126 Accurately ripped (confidence 7) [5443E450] (AR v1) Copy OK
Track 6
Filename C:\@Rips@\Kevin Ayers - Songs For Insane Times (An Anthology 1969-1980) (2008) [FLAC]\Disc 1\06 - Eleanor's Cake (Which Ate Her).wav
Pre-gap length 0:00:02.17
Peak level 65.5 % Extraction speed 7.2 X Track quality 100.0 % Test CRC E13DF6C2 Copy CRC E13DF6C2 Accurately ripped (confidence 7) [94087DCD] (AR v1) Copy OK
Track 7
Filename C:\@Rips@\Kevin Ayers - Songs For Insane Times (An Anthology 1969-1980) (2008) [FLAC]\Disc 1\07 - Religious Experience (Singing a Song in the Morning) (Feat. Syd Barrett).wav
Pre-gap length 0:00:01.61
Peak level 77.7 % Extraction speed 7.9 X Track quality 100.0 % Test CRC 1FAE209A Copy CRC 1FAE209A Accurately ripped (confidence 6) [BA63342C] (AR v1) Copy OK
Track 8
Filename C:\@Rips@\Kevin Ayers - Songs For Insane Times (An Anthology 1969-1980) (2008) [FLAC]\Disc 1\08 - Soon Soon Soon.wav
Pre-gap length 0:00:01.32
Peak level 76.5 % Extraction speed 7.9 X Track quality 100.0 % Test CRC 69F3D94B Copy CRC 69F3D94B Accurately ripped (confidence 6) [FB422CC4] (AR v1) Copy OK
Track 9
Filename C:\@Rips@\Kevin Ayers - Songs For Insane Times (An Anthology 1969-1980) (2008) [FLAC]\Disc 1\09 - Rheinhardt & Geraldine, Colores Para Delores.wav
Pre-gap length 0:00:02.36
Peak level 73.4 % Extraction speed 8.7 X Track quality 100.0 % Test CRC BE72F8AA Copy CRC BE72F8AA Accurately ripped (confidence 6) [2DCD6A15] (AR v1) Copy OK
Track 10
Filename C:\@Rips@\Kevin Ayers - Songs For Insane Times (An Anthology 1969-1980) (2008) [FLAC]\Disc 1\10 - May I.wav
Pre-gap length 0:00:01.59
Peak level 71.8 % Extraction speed 8.7 X Track quality 100.0 % Test CRC 6F7CCD4C Copy CRC 6F7CCD4C Accurately ripped (confidence 6) [2395B576] (AR v1) Copy OK
Track 11
Filename C:\@Rips@\Kevin Ayers - Songs For Insane Times (An Anthology 1969-1980) (2008) [FLAC]\Disc 1\11 - Clarence in Wonderland.wav
Pre-gap length 0:00:02.37
Peak level 81.5 % Extraction speed 4.2 X Track quality 99.9 % Test CRC 7BE42F33 Copy CRC 7BE42F33 Accurately ripped (confidence 6) [9131353F] (AR v1) Copy OK
Track 12
Filename C:\@Rips@\Kevin Ayers - Songs For Insane Times (An Anthology 1969-1980) (2008) [FLAC]\Disc 1\12 - The Oyster and the Flying Fish.wav
Pre-gap length 0:00:01.40
Peak level 79.1 % Extraction speed 4.8 X Track quality 99.9 % Test CRC 5B2203A7 Copy CRC 5B2203A7 Accurately ripped (confidence 6) [67FBB2DF] (AR v1) Copy OK
Track 13
Filename C:\@Rips@\Kevin Ayers - Songs For Insane Times (An Anthology 1969-1980) (2008) [FLAC]\Disc 1\13 - Shoting at the Moon.wav
Pre-gap length 0:00:02.35
Peak level 88.0 % Extraction speed 9.7 X Track quality 100.0 % Test CRC F035B0B8 Copy CRC F035B0B8 Accurately ripped (confidence 6) [8F684B20] (AR v1) Copy OK
Track 14
Filename C:\@Rips@\Kevin Ayers - Songs For Insane Times (An Anthology 1969-1980) (2008) [FLAC]\Disc 1\14 - Butterfly Dance.wav
Pre-gap length 0:00:01.34
Peak level 73.5 % Extraction speed 9.5 X Track quality 100.0 % Test CRC 3D33D85C Copy CRC 3D33D85C Accurately ripped (confidence 6) [4BD72C8C] (AR v1) Copy OK
Track 15
Filename C:\@Rips@\Kevin Ayers - Songs For Insane Times (An Anthology 1969-1980) (2008) [FLAC]\Disc 1\15 - Gemini Child.wav
Pre-gap length 0:00:01.51
Peak level 73.5 % Extraction speed 9.5 X Track quality 100.0 % Test CRC A6DCEAC0 Copy CRC A6DCEAC0 Accurately ripped (confidence 6) [2289B5CB] (AR v1) Copy OK
Track 16
Filename C:\@Rips@\Kevin Ayers - Songs For Insane Times (An Anthology 1969-1980) (2008) [FLAC]\Disc 1\16 - Stars.wav
Pre-gap length 0:00:01.44
Peak level 82.4 % Extraction speed 9.6 X Track quality 100.0 % Test CRC 9E6CF8B9 Copy CRC 9E6CF8B9 Accurately ripped (confidence 6) [7582F44D] (AR v1) Copy OK
Track 17
Filename C:\@Rips@\Kevin Ayers - Songs For Insane Times (An Anthology 1969-1980) (2008) [FLAC]\Disc 1\17 - There Is Loving, Among Us, The Is Loving.wav
Pre-gap length 0:00:01.66
Peak level 91.5 % Extraction speed 10.7 X Track quality 100.0 % Test CRC 5B28EFA9 Copy CRC 5B28EFA9 Accurately ripped (confidence 6) [E55BC8F4] (AR v1) Copy OK
All tracks accurately ripped
No errors occurred
End of status report
==== Log checksum 642FFD60DC5A4BB531767690297F16AC7D80A929F4708C2C930C97AC295CD840 ====

Содержание индексной карты (.CUE)

REM GENRE Pop-RockREM DATE 2008REM DISCID F4110F11REM COMMENT "ExactAudioCopy v1.0b3"PERFORMER "Kevin Ayers"TITLE "Songs for Insane Times (Disc 1)"FILE "01 - Town Feeling.wav" WAVE TRACK 01 AUDIO TITLE "Town Feeling" PERFORMER "Kevin Ayers" FLAGS DCP INDEX 01 00:00:00 TRACK 02 AUDIO TITLE "Song for Insane Times" PERFORMER "Kevin Ayers" FLAGS DCP INDEX 00 04:52:27FILE "02 - Song for Insane Times.wav" WAVE INDEX 01 00:00:00 TRACK 03 AUDIO TITLE "Girl on a Swing" PERFORMER "Kevin Ayers" FLAGS DCP INDEX 00 04:01:56FILE "03 - Girl on a Swing.wav" WAVE INDEX 01 00:00:00 TRACK 04 AUDIO TITLE "The Lady Rachel" PERFORMER "Kevin Ayers" FLAGS DCP INDEX 00 02:50:16FILE "04 - The Lady Rachel.wav" WAVE INDEX 01 00:00:00 TRACK 05 AUDIO TITLE "Stop This Train (Again Doing It)" PERFORMER "Kevin Ayers" FLAGS DCP INDEX 00 05:18:22FILE "05 - Stop This Train (Again Doing It).wav" WAVE INDEX 01 00:00:00 TRACK 06 AUDIO TITLE "Eleanor's Cake (Which Ate Her)" PERFORMER "Kevin Ayers" FLAGS DCP INDEX 00 06:06:48FILE "06 - Eleanor's Cake (Which Ate Her).wav" WAVE INDEX 01 00:00:00 TRACK 07 AUDIO TITLE "Religious Experience (Singing a Song in the Morning) (Feat. Syd Barrett)" PERFORMER "Kevin Ayers" FLAGS DCP INDEX 00 02:54:46FILE "07 - Religious Experience (Singing a Song in the Morning) (Feat. Syd Barrett).wav" WAVE INDEX 01 00:00:00 TRACK 08 AUDIO TITLE "Soon Soon Soon" PERFORMER "Kevin Ayers" FLAGS DCP INDEX 00 04:45:26FILE "08 - Soon Soon Soon.wav" WAVE INDEX 01 00:00:00 TRACK 09 AUDIO TITLE "Rheinhardt & Geraldine, Colores Para Delores" PERFORMER "Kevin Ayers" FLAGS DCP INDEX 00 03:21:21FILE "09 - Rheinhardt & Geraldine, Colores Para Delores.wav" WAVE INDEX 01 00:00:00 TRACK 10 AUDIO TITLE "May I" PERFORMER "Kevin Ayers" FLAGS DCP INDEX 00 05:39:40FILE "10 - May I.wav" WAVE INDEX 01 00:00:00 TRACK 11 AUDIO TITLE "Clarence in Wonderland" PERFORMER "Kevin Ayers" FLAGS DCP INDEX 00 04:00:31FILE "11 - Clarence in Wonderland.wav" WAVE INDEX 01 00:00:00 TRACK 12 AUDIO TITLE "The Oyster and the Flying Fish" PERFORMER "Kevin Ayers" FLAGS DCP INDEX 00 02:06:72FILE "12 - The Oyster and the Flying Fish.wav" WAVE INDEX 01 00:00:00 TRACK 13 AUDIO TITLE "Shooting at the Moon" PERFORMER "Kevin Ayers" FLAGS DCP INDEX 00 02:37:67FILE "13 - Shooting at the Moon.wav" WAVE INDEX 01 00:00:00 TRACK 14 AUDIO TITLE "Butterfly Dance" PERFORMER "Kevin Ayers" FLAGS DCP INDEX 00 05:48:20FILE "14 - Butterfly Dance.wav" WAVE INDEX 01 00:00:00 TRACK 15 AUDIO TITLE "Gemini Child" PERFORMER "Kevin Ayers" FLAGS DCP INDEX 00 03:44:16FILE "15 - Gemini Child.wav" WAVE INDEX 01 00:00:00 TRACK 16 AUDIO TITLE "Stars" PERFORMER "Kevin Ayers" FLAGS DCP INDEX 00 03:15:31FILE "16 - Stars.wav" WAVE INDEX 01 00:00:00 TRACK 17 AUDIO TITLE "There is Loving, Among Us, There is Loving" PERFORMER "Kevin Ayers" FLAGS DCP INDEX 00 03:31:33FILE "17 - There is Loving, Among Us, There is Loving.wav" WAVE INDEX 01 00:00:00

Disc 2 (69:22)

Треклист:
01. Stranger in Blue Suede Shoes (3:22)
02. Song from the Bottom of a Well (4:38)
03. Oh My (3:01)
04. Margaret (3:20)
05. Whatevershebringswesing (8:14)
06. Decadence (8:06)
07. Oh! Wot a Dream (2:51)
08. Don't Let It Get You Down (4:00)
09. Interview (4:46)
10. Caribbean Moon (3:04)
11. The Up Song (3:18)
12. The Confessions of Doctor Dream - Irreversible Neural Damage (6:46)
13. It Begins with a Blessing, Once I Awakened, But it Ends with a Curse (8:19)
14. See You Later (4:42)
15. Ballbearing Blues (0:56)
 

Лог создания рипа

Exact Audio Copy V1.0 beta 3 from 29. August 2011
EAC extraction logfile from 13. October 2011, 18:01
Kevin Ayers / Songs for Insane Times (Disc 2)
Used drive : BENQ DVD DD DW1640 Adapter: 1 ID: 1
Read mode : SecureUtilize accurate stream : YesDefeat audio cache : YesMake use of C2 pointers : No
Read offset correction : 618Overread into Lead-In and Lead-Out : NoFill up missing offset samples with silence : YesDelete leading and trailing silent blocks : NoNull samples used in CRC calculations : YesUsed interface : Native Win32 interface for Win NT & 2000Gap handling : Appended to previous track
Used output format : User Defined EncoderSelected bitrate : 768 kBit/sQuality : HighAdd ID3 tag : NoCommand line compressor : C:\Program Files\Exact Audio Copy\FLAC\FLAC.EXEAdditional command line options : -8 -V -T "ARTIST=%artist%" -T "TITLE=%title%" -T "ALBUM=%albumtitle%" -T "DATE=%year%" -T "TRACKNUMBER=%tracknr%" -T "GENRE=%genre%" -T "COMMENT=%comment%" -T "BAND=%albuminterpret%" -T "ALBUMARTIST=%albuminterpret%" -T "COMPOSER=%composer%" %haslyrics%--tag-from-file=LYRICS="%lyricsfile%"%haslyrics% -T "DISCNUMBER=%cdnumber%" -T "TOTALDISCS=%totalcds%" -T "TOTALTRACKS=%numtracks%" %hascover%--picture="%coverfile%"%hascover% %source% -o %dest%
TOC of the extracted CD
Track | Start | Length | Start sector | End sector --------------------------------------------------------- 1 | 0:00.00 | 3:21.57 | 0 | 15131 2 | 3:21.57 | 4:37.49 | 15132 | 35955 3 | 7:59.31 | 3:00.38 | 35956 | 49493 4 | 10:59.69 | 3:19.60 | 49494 | 64478 5 | 14:19.54 | 8:13.63 | 64479 | 101516 6 | 22:33.42 | 8:06.31 | 101517 | 137997 7 | 30:39.73 | 2:50.66 | 137998 | 150813 8 | 33:30.64 | 4:00.33 | 150814 | 168846 9 | 37:31.22 | 4:45.58 | 168847 | 190279 10 | 42:17.05 | 3:03.56 | 190280 | 204060 11 | 45:20.61 | 3:18.02 | 204061 | 218912 12 | 48:38.63 | 6:46.33 | 218913 | 249395 13 | 55:25.21 | 8:19.17 | 249396 | 286837 14 | 63:44.38 | 4:41.49 | 286838 | 307961 15 | 68:26.12 | 0:56.06 | 307962 | 312167
Track 1
Filename C:\@Rips@\Kevin Ayers - Songs For Insane Times (An Anthology 1969-1980) (2008) [FLAC]\Disc 2\01 - Stranger in Blue Suede Shoes.wav
Pre-gap length 0:00:02.00
Peak level 94.2 % Extraction speed 5.1 X Track quality 100.0 % Test CRC 1B4F7456 Copy CRC 1B4F7456 Accurately ripped (confidence 6) [4EF65728] (AR v1) Copy OK
Track 2
Filename C:\@Rips@\Kevin Ayers - Songs For Insane Times (An Anthology 1969-1980) (2008) [FLAC]\Disc 2\02 - Song From the Bottom of a Well.wav
Pre-gap length 0:00:01.29
Peak level 97.8 % Extraction speed 5.9 X Track quality 100.0 % Test CRC 981DC594 Copy CRC 981DC594 Accurately ripped (confidence 6) [3C4A89A2] (AR v1) Copy OK
Track 3
Filename C:\@Rips@\Kevin Ayers - Songs For Insane Times (An Anthology 1969-1980) (2008) [FLAC]\Disc 2\03 - Oh My.wav
Pre-gap length 0:00:01.19
Peak level 97.9 % Extraction speed 5.9 X Track quality 100.0 % Test CRC FE59DCF4 Copy CRC FE59DCF4 Accurately ripped (confidence 6) [D8A40AD9] (AR v1) Copy OK
Track 4
Filename C:\@Rips@\Kevin Ayers - Songs For Insane Times (An Anthology 1969-1980) (2008) [FLAC]\Disc 2\04 - Margaret.wav
Pre-gap length 0:00:02.06
Peak level 84.3 % Extraction speed 6.4 X Track quality 100.0 % Test CRC 62A68202 Copy CRC 62A68202 Accurately ripped (confidence 6) [61CAE860] (AR v1) Copy OK
Track 5
Filename C:\@Rips@\Kevin Ayers - Songs For Insane Times (An Anthology 1969-1980) (2008) [FLAC]\Disc 2\05 - Whatevershebringswesing.wav
Pre-gap length 0:00:01.40
Peak level 91.7 % Extraction speed 7.6 X Track quality 100.0 % Test CRC F26C5314 Copy CRC F26C5314 Accurately ripped (confidence 6) [DC808505] (AR v1) Copy OK
Track 6
Filename C:\@Rips@\Kevin Ayers - Songs For Insane Times (An Anthology 1969-1980) (2008) [FLAC]\Disc 2\06 - Decadence.wav
Pre-gap length 0:00:02.19
Peak level 93.6 % Extraction speed 8.3 X Track quality 100.0 % Test CRC 017DC220 Copy CRC 017DC220 Accurately ripped (confidence 6) [0466A9B2] (AR v1) Copy OK
Track 7
Filename C:\@Rips@\Kevin Ayers - Songs For Insane Times (An Anthology 1969-1980) (2008) [FLAC]\Disc 2\07 - Oh! Wot a Dream.wav
Pre-gap length 0:00:01.38
Peak level 92.6 % Extraction speed 7.7 X Track quality 100.0 % Test CRC CFF04C40 Copy CRC CFF04C40 Accurately ripped (confidence 6) [857D90EC] (AR v1) Copy OK
Track 8
Filename C:\@Rips@\Kevin Ayers - Songs For Insane Times (An Anthology 1969-1980) (2008) [FLAC]\Disc 2\08 - Don't Let It Get You Down.wav
Pre-gap length 0:00:01.54
Peak level 98.4 % Extraction speed 8.4 X Track quality 100.0 % Test CRC C2241945 Copy CRC C2241945 Accurately ripped (confidence 6) [B06BCC64] (AR v1) Copy OK
Track 9
Filename C:\@Rips@\Kevin Ayers - Songs For Insane Times (An Anthology 1969-1980) (2008) [FLAC]\Disc 2\09 - Interview.wav
Pre-gap length 0:00:01.18
Peak level 88.2 % Extraction speed 9.0 X Track quality 100.0 % Test CRC EF6DE344 Copy CRC EF6DE344 Accurately ripped (confidence 6) [70910B6F] (AR v1) Copy OK
Track 10
Filename C:\@Rips@\Kevin Ayers - Songs For Insane Times (An Anthology 1969-1980) (2008) [FLAC]\Disc 2\10 - Caribbean Moon.wav
Pre-gap length 0:00:02.04
Peak level 99.1 % Extraction speed 8.6 X Track quality 100.0 % Test CRC 4417233F Copy CRC 4417233F Accurately ripped (confidence 6) [8DE014E5] (AR v1) Copy OK
Track 11
Filename C:\@Rips@\Kevin Ayers - Songs For Insane Times (An Anthology 1969-1980) (2008) [FLAC]\Disc 2\11 - The Up Song.wav
Pre-gap length 0:00:01.24
Peak level 79.3 % Extraction speed 9.0 X Track quality 100.0 % Test CRC 23AC82A1 Copy CRC 23AC82A1 Accurately ripped (confidence 6) [657F6E24] (AR v1) Copy OK
Track 12
Filename C:\@Rips@\Kevin Ayers - Songs For Insane Times (An Anthology 1969-1980) (2008) [FLAC]\Disc 2\12 - The Confessions of Doctor Dream - Irreversible Neural Damage.wav
Pre-gap length 0:00:01.58
Peak level 99.1 % Extraction speed 9.9 X Track quality 100.0 % Test CRC 5F849798 Copy CRC 5F849798 Accurately ripped (confidence 6) [4CFA04EB] (AR v1) Copy OK
Track 13
Filename C:\@Rips@\Kevin Ayers - Songs For Insane Times (An Anthology 1969-1980) (2008) [FLAC]\Disc 2\13 - It Begins with a Blessing, Once I Awakened, But it Ends with a Curse.wav
Pre-gap length 0:00:01.71
Peak level 99.1 % Extraction speed 10.6 X Track quality 100.0 % Test CRC C49009A8 Copy CRC C49009A8 Accurately ripped (confidence 6) [4D6EE0BF] (AR v1) Copy OK
Track 14
Filename C:\@Rips@\Kevin Ayers - Songs For Insane Times (An Anthology 1969-1980) (2008) [FLAC]\Disc 2\14 - See You Later.wav
Pre-gap length 0:00:01.60
Peak level 99.1 % Extraction speed 10.4 X Track quality 100.0 % Test CRC B82D7531 Copy CRC B82D7531 Accurately ripped (confidence 6) [1BA708D1] (AR v1) Copy OK
Track 15
Filename C:\@Rips@\Kevin Ayers - Songs For Insane Times (An Anthology 1969-1980) (2008) [FLAC]\Disc 2\15 - Ballbearing Blues.wav
Pre-gap length 0:00:02.66
Peak level 72.0 % Extraction speed 7.1 X Track quality 100.0 % Test CRC 8B8349C5 Copy CRC 8B8349C5 Accurately ripped (confidence 6) [1F23DE27] (AR v1) Copy OK
All tracks accurately ripped
No errors occurred
End of status report
==== Log checksum 406B1C4D19D139D85EB5EDC1DFABFC3A8CDC43835673FDBFF41878BD492F4C80 ====

Содержание индексной карты (.CUE)

REM GENRE Pop-RockREM DATE 2008REM DISCID B910420FREM COMMENT "ExactAudioCopy v1.0b3"PERFORMER "Kevin Ayers"TITLE "Songs for Insane Times (Disc 2)"FILE "01 - Stranger in Blue Suede Shoes.wav" WAVE TRACK 01 AUDIO TITLE "Stranger in Blue Suede Shoes" PERFORMER "Kevin Ayers" FLAGS DCP INDEX 01 00:00:00 TRACK 02 AUDIO TITLE "Song from the Bottom of a Well" PERFORMER "Kevin Ayers" FLAGS DCP INDEX 00 03:20:28FILE "02 - Song from the Bottom of a Well.wav" WAVE INDEX 01 00:00:00 TRACK 03 AUDIO TITLE "Oh My" PERFORMER "Kevin Ayers" FLAGS DCP INDEX 00 04:36:30FILE "03 - Oh My.wav" WAVE INDEX 01 00:00:00 TRACK 04 AUDIO TITLE "Margaret" PERFORMER "Kevin Ayers" FLAGS DCP INDEX 00 02:58:32FILE "04 - Margaret.wav" WAVE INDEX 01 00:00:00 TRACK 05 AUDIO TITLE "Whatevershebringswesing" PERFORMER "Kevin Ayers" FLAGS DCP INDEX 00 03:18:20FILE "05 - Whatevershebringswesing.wav" WAVE INDEX 01 00:00:00 TRACK 06 AUDIO TITLE "Decadence" PERFORMER "Kevin Ayers" FLAGS DCP INDEX 00 08:11:44FILE "06 - Decadence.wav" WAVE INDEX 01 00:00:00 TRACK 07 AUDIO TITLE "Oh! Wot a Dream" PERFORMER "Kevin Ayers" FLAGS DCP INDEX 00 08:04:68FILE "07 - Oh! Wot a Dream.wav" WAVE INDEX 01 00:00:00 TRACK 08 AUDIO TITLE "Don't Let It Get You Down" PERFORMER "Kevin Ayers" FLAGS DCP INDEX 00 02:49:12FILE "08 - Don't Let It Get You Down.wav" WAVE INDEX 01 00:00:00 TRACK 09 AUDIO TITLE "Interview" PERFORMER "Kevin Ayers" FLAGS DCP INDEX 00 03:59:15FILE "09 - Interview.wav" WAVE INDEX 01 00:00:00 TRACK 10 AUDIO TITLE "Caribbean Moon" PERFORMER "Kevin Ayers" FLAGS DCP INDEX 00 04:43:54FILE "10 - Caribbean Moon.wav" WAVE INDEX 01 00:00:00 TRACK 11 AUDIO TITLE "The Up Song" PERFORMER "Kevin Ayers" FLAGS DCP INDEX 00 03:02:32FILE "11 - The Up Song.wav" WAVE INDEX 01 00:00:00 TRACK 12 AUDIO TITLE "The Confessions of Doctor Dream - Irreversible Neural Damage" PERFORMER "Kevin Ayers" FLAGS DCP INDEX 00 03:16:19FILE "12 - The Confessions of Doctor Dream - Irreversible Neural Damage.wav" WAVE INDEX 01 00:00:00 TRACK 13 AUDIO TITLE "It Begins with a Blessing, Once I Awakened, But it Ends with a Curse" PERFORMER "Kevin Ayers" FLAGS DCP INDEX 00 06:44:37FILE "13 - It Begins with a Blessing, Once I Awakened, But it Ends with a Curse.wav" WAVE INDEX 01 00:00:00 TRACK 14 AUDIO TITLE "See You Later" PERFORMER "Kevin Ayers" FLAGS DCP INDEX 00 08:17:32FILE "14 - See You Later.wav" WAVE INDEX 01 00:00:00 TRACK 15 AUDIO TITLE "Ballbearing Blues" PERFORMER "Kevin Ayers" FLAGS DCP INDEX 00 04:38:58FILE "15 - Ballbearing Blues.wav" WAVE INDEX 01 00:00:00

Disc 3 (69:29)

Треклист:
01. After the Show (2:39)
02. Thank You Very Much (3:03)
03. Observations (4:24)
04. Toujours La Voyage (7:58)
05. Diminished But Not Finished (1:57)
06. Farewell Again (Another Dawn) (3:15)
07. Yes I Do (3:15)
08. Love's Gonna Turn You Around (4:54)
09. Ballad Of Mr. Snake (2:09)
10. Blue (6:27)
11. Ballad for a Salesman Who Sold Himself (4:31)
12. A View from the Mountain (6:18)
13. Beware of the Dog II (6:01)
14. Hat Song (1:18)
15. Mony, Money, Money (3:14)
16. Super Salesman (5:04)
17. Where Do the Stars End (3:02)
 

Лог создания рипа

Exact Audio Copy V1.0 beta 3 from 29. August 2011
EAC extraction logfile from 13. October 2011, 18:31
Kevin Ayers / Songs for Insane Times (Disc 3)
Used drive : BENQ DVD DD DW1640 Adapter: 1 ID: 1
Read mode : SecureUtilize accurate stream : YesDefeat audio cache : YesMake use of C2 pointers : No
Read offset correction : 618Overread into Lead-In and Lead-Out : NoFill up missing offset samples with silence : YesDelete leading and trailing silent blocks : NoNull samples used in CRC calculations : YesUsed interface : Native Win32 interface for Win NT & 2000Gap handling : Appended to previous track
Used output format : User Defined EncoderSelected bitrate : 768 kBit/sQuality : HighAdd ID3 tag : NoCommand line compressor : C:\Program Files\Exact Audio Copy\FLAC\FLAC.EXEAdditional command line options : -8 -V -T "ARTIST=%artist%" -T "TITLE=%title%" -T "ALBUM=%albumtitle%" -T "DATE=%year%" -T "TRACKNUMBER=%tracknr%" -T "GENRE=%genre%" -T "COMMENT=%comment%" -T "BAND=%albuminterpret%" -T "ALBUMARTIST=%albuminterpret%" -T "COMPOSER=%composer%" %haslyrics%--tag-from-file=LYRICS="%lyricsfile%"%haslyrics% -T "DISCNUMBER=%cdnumber%" -T "TOTALDISCS=%totalcds%" -T "TOTALTRACKS=%numtracks%" %hascover%--picture="%coverfile%"%hascover% %source% -o %dest%
TOC of the extracted CD
Track | Start | Length | Start sector | End sector --------------------------------------------------------- 1 | 0:00.00 | 2:38.40 | 0 | 11889 2 | 2:38.40 | 3:02.73 | 11890 | 25612 3 | 5:41.38 | 4:23.71 | 25613 | 45408 4 | 10:05.34 | 7:58.08 | 45409 | 81266 5 | 18:03.42 | 1:57.17 | 81267 | 90058 6 | 20:00.59 | 3:14.57 | 90059 | 104665 7 | 23:15.41 | 3:15.11 | 104666 | 119301 8 | 26:30.52 | 4:54.16 | 119302 | 141367 9 | 31:24.68 | 2:09.14 | 141368 | 151056 10 | 33:34.07 | 6:27.34 | 151057 | 180115 11 | 40:01.41 | 4:31.11 | 180116 | 200451 12 | 44:32.52 | 6:18.02 | 200452 | 228803 13 | 50:50.54 | 6:00.58 | 228804 | 255861 14 | 56:51.37 | 1:17.55 | 255862 | 261691 15 | 58:09.17 | 3:14.04 | 261692 | 276245 16 | 61:23.21 | 5:03.55 | 276246 | 299025 17 | 66:27.01 | 3:01.38 | 299026 | 312638
Track 1
Filename C:\@Rips@\Kevin Ayers - Songs For Insane Times (An Anthology 1969-1980) (2008) [FLAC]\Disc 3\01 - After the Show.wav
Pre-gap length 0:00:02.00
Peak level 81.0 % Extraction speed 4.8 X Track quality 100.0 % Test CRC 81C3A859 Copy CRC 81C3A859 Accurately ripped (confidence 5) [1DBF7A21] (AR v1) Copy OK
Track 2
Filename C:\@Rips@\Kevin Ayers - Songs For Insane Times (An Anthology 1969-1980) (2008) [FLAC]\Disc 3\02 - Thank You Very Much.wav
Pre-gap length 0:00:01.28
Peak level 60.6 % Extraction speed 5.4 X Track quality 100.0 % Test CRC 80074CD7 Copy CRC 80074CD7 Accurately ripped (confidence 5) [791B5BFA] (AR v1) Copy OK
Track 3
Filename C:\@Rips@\Kevin Ayers - Songs For Insane Times (An Anthology 1969-1980) (2008) [FLAC]\Disc 3\03 - Observations.wav
Pre-gap length 0:00:01.59
Peak level 95.7 % Extraction speed 5.2 X Track quality 99.9 % Test CRC 26C2C4F2 Copy CRC 26C2C4F2 Accurately ripped (confidence 5) [94031A7B] (AR v1) Copy OK
Track 4
Filename C:\@Rips@\Kevin Ayers - Songs For Insane Times (An Anthology 1969-1980) (2008) [FLAC]\Disc 3\04 - Toujours La Voyage.wav
Pre-gap length 0:00:01.44
Peak level 98.9 % Extraction speed 7.2 X Track quality 100.0 % Test CRC 6A79F620 Copy CRC 6A79F620 Accurately ripped (confidence 5) [94E200B6] (AR v1) Copy OK
Track 5
Filename C:\@Rips@\Kevin Ayers - Songs For Insane Times (An Anthology 1969-1980) (2008) [FLAC]\Disc 3\05 - Diminished But Not Finished.wav
Pre-gap length 0:00:00.05
Peak level 85.7 % Extraction speed 6.2 X Track quality 100.0 % Test CRC A80BA919 Copy CRC A80BA919 Accurately ripped (confidence 5) [E64F7FF6] (AR v1) Copy OK
Track 6
Filename C:\@Rips@\Kevin Ayers - Songs For Insane Times (An Anthology 1969-1980) (2008) [FLAC]\Disc 3\06 - Farewell Again (Another Dawn).wav
Pre-gap length 0:00:01.28
Peak level 93.5 % Extraction speed 7.1 X Track quality 100.0 % Test CRC 2CC2D126 Copy CRC 2CC2D126 Accurately ripped (confidence 5) [876C200B] (AR v1) Copy OK
Track 7
Filename C:\@Rips@\Kevin Ayers - Songs For Insane Times (An Anthology 1969-1980) (2008) [FLAC]\Disc 3\07 - Yes I Do.wav
Pre-gap length 0:00:00.17
Peak level 74.4 % Extraction speed 7.4 X Track quality 100.0 % Test CRC 3B32F21D Copy CRC 3B32F21D Accurately ripped (confidence 5) [735A260D] (AR v1) Copy OK
Track 8
Filename C:\@Rips@\Kevin Ayers - Songs For Insane Times (An Anthology 1969-1980) (2008) [FLAC]\Disc 3\08 - Love's Gonna Turn Youm Round.wav
Pre-gap length 0:00:01.63
Peak level 93.8 % Extraction speed 8.1 X Track quality 100.0 % Test CRC A22D0487 Copy CRC A22D0487 Accurately ripped (confidence 5) [265953DE] (AR v1) Copy OK
Track 9
Filename C:\@Rips@\Kevin Ayers - Songs For Insane Times (An Anthology 1969-1980) (2008) [FLAC]\Disc 3\09 - Ballad Of Mr. Snake.wav
Pre-gap length 0:00:02.14
Peak level 91.0 % Extraction speed 7.3 X Track quality 100.0 % Test CRC E5849E3B Copy CRC E5849E3B Accurately ripped (confidence 5) [F2211173] (AR v1) Copy OK
Track 10
Filename C:\@Rips@\Kevin Ayers - Songs For Insane Times (An Anthology 1969-1980) (2008) [FLAC]\Disc 3\10 - Blue.wav
Pre-gap length 0:00:01.71
Peak level 88.4 % Extraction speed 8.0 X Track quality 99.9 % Test CRC 61AD7F79 Copy CRC 61AD7F79 Accurately ripped (confidence 5) [8501888E] (AR v1) Copy OK
Track 11
Filename C:\@Rips@\Kevin Ayers - Songs For Insane Times (An Anthology 1969-1980) (2008) [FLAC]\Disc 3\11 - Ballad for a Salesman Who Sold Himself.wav
Pre-gap length 0:00:00.22
Peak level 99.0 % Extraction speed 9.1 X Track quality 100.0 % Test CRC E4B3F715 Copy CRC E4B3F715 Accurately ripped (confidence 5) [15A881F2] (AR v1) Copy OK
Track 12
Filename C:\@Rips@\Kevin Ayers - Songs For Insane Times (An Anthology 1969-1980) (2008) [FLAC]\Disc 3\12 - A View from the Mountain.wav
Peak level 94.1 % Extraction speed 9.8 X Track quality 100.0 % Test CRC ED0E4F4C Copy CRC ED0E4F4C Accurately ripped (confidence 5) [714CE3B7] (AR v1) Copy OK
Track 13
Filename C:\@Rips@\Kevin Ayers - Songs For Insane Times (An Anthology 1969-1980) (2008) [FLAC]\Disc 3\13 - Beware of the Dog II.wav
Pre-gap length 0:00:01.27
Peak level 99.2 % Extraction speed 10.1 X Track quality 100.0 % Test CRC B209B4BC Copy CRC B209B4BC Accurately ripped (confidence 5) [EE61D969] (AR v1) Copy OK
Track 14
Filename C:\@Rips@\Kevin Ayers - Songs For Insane Times (An Anthology 1969-1980) (2008) [FLAC]\Disc 3\14 - Hat Song.wav
Pre-gap length 0:00:01.74
Peak level 89.4 % Extraction speed 7.7 X Track quality 100.0 % Test CRC CB05DC17 Copy CRC CB05DC17 Accurately ripped (confidence 5) [76B88E0A] (AR v1) Copy OK
Track 15
Filename C:\@Rips@\Kevin Ayers - Songs For Insane Times (An Anthology 1969-1980) (2008) [FLAC]\Disc 3\15 - Mony, Money, Money.wav
Pre-gap length 0:00:02.42
Peak level 99.1 % Extraction speed 9.5 X Track quality 100.0 % Test CRC F3DDF7FC Copy CRC F3DDF7FC Accurately ripped (confidence 5) [D0EEE37C] (AR v1) Copy OK
Track 16
Filename C:\@Rips@\Kevin Ayers - Songs For Insane Times (An Anthology 1969-1980) (2008) [FLAC]\Disc 3\16 - Super Salesman.wav
Pre-gap length 0:00:01.55
Peak level 99.0 % Extraction speed 9.2 X Track quality 100.0 % Test CRC DA84E5DD Copy CRC DA84E5DD Accurately ripped (confidence 5) [BA64F2A3] (AR v1) Copy OK
Track 17
Filename C:\@Rips@\Kevin Ayers - Songs For Insane Times (An Anthology 1969-1980) (2008) [FLAC]\Disc 3\17 - Where Do the Stars End.wav
Pre-gap length 0:00:00.03
Peak level 92.9 % Extraction speed 9.8 X Track quality 100.0 % Test CRC 95F23686 Copy CRC 95F23686 Accurately ripped (confidence 5) [6016EE29] (AR v1) Copy OK
All tracks accurately ripped
No errors occurred
End of status report
==== Log checksum D5D88311F7F59B4BEA955DE3A6049D1691F74AA3A43157E8A9BA05CA5DAF2814 ====

Содержание индексной карты (.CUE)

REM GENRE Pop-RockREM DATE 2008REM DISCID ED104811REM COMMENT "ExactAudioCopy v1.0b3"PERFORMER "Kevin Ayers"TITLE "Songs for Insane Times (Disc 3)"FILE "01 - After the Show.wav" WAVE TRACK 01 AUDIO TITLE "After the Show" PERFORMER "Kevin Ayers" FLAGS DCP INDEX 01 00:00:00 TRACK 02 AUDIO TITLE "Thank You Very Much" PERFORMER "Kevin Ayers" FLAGS DCP INDEX 00 02:37:12FILE "02 - Thank You Very Much.wav" WAVE INDEX 01 00:00:00 TRACK 03 AUDIO TITLE "Observations" PERFORMER "Kevin Ayers" FLAGS DCP INDEX 00 03:01:14FILE "03 - Observations.wav" WAVE INDEX 01 00:00:00 TRACK 04 AUDIO TITLE "Toujours La Voyage" PERFORMER "Kevin Ayers" FLAGS DCP INDEX 00 04:22:27FILE "04 - Toujours La Voyage.wav" WAVE INDEX 01 00:00:00 TRACK 05 AUDIO TITLE "Diminished But Not Finished" PERFORMER "Kevin Ayers" FLAGS DCP INDEX 00 07:58:03FILE "05 - Diminished But Not Finished.wav" WAVE INDEX 01 00:00:00 TRACK 06 AUDIO TITLE "Farewell Again (Another Dawn)" PERFORMER "Kevin Ayers" FLAGS DCP INDEX 00 01:55:64FILE "06 - Farewell Again (Another Dawn).wav" WAVE INDEX 01 00:00:00 TRACK 07 AUDIO TITLE "Yes I Do" PERFORMER "Kevin Ayers" FLAGS DCP INDEX 00 03:14:40FILE "07 - Yes I Do.wav" WAVE INDEX 01 00:00:00 TRACK 08 AUDIO TITLE "Love's Gonna Turn You Around" PERFORMER "Kevin Ayers" FLAGS DCP INDEX 00 03:13:23FILE "08 - Love's Gonna Turn You Around.wav" WAVE INDEX 01 00:00:00 TRACK 09 AUDIO TITLE "Ballad Of Mr. Snake" PERFORMER "Kevin Ayers" FLAGS DCP INDEX 00 04:52:02FILE "09 - Ballad Of Mr. Snake.wav" WAVE INDEX 01 00:00:00 TRACK 10 AUDIO TITLE "Blue" PERFORMER "Kevin Ayers" FLAGS DCP INDEX 00 02:07:18FILE "10 - Blue.wav" WAVE INDEX 01 00:00:00 TRACK 11 AUDIO TITLE "Ballad for a Salesman Who Sold Himself" PERFORMER "Kevin Ayers" FLAGS DCP INDEX 00 06:27:12FILE "11 - Ballad for a Salesman Who Sold Himself.wav" WAVE INDEX 01 00:00:00FILE "12 - A View from the Mountain.wav" WAVE TRACK 12 AUDIO TITLE "A View from the Mountain" PERFORMER "Kevin Ayers" FLAGS DCP INDEX 01 00:00:00 TRACK 13 AUDIO TITLE "Beware of the Dog II" PERFORMER "Kevin Ayers" FLAGS DCP INDEX 00 06:16:50FILE "13 - Beware of the Dog II.wav" WAVE INDEX 01 00:00:00 TRACK 14 AUDIO TITLE "Hat Song" PERFORMER "Kevin Ayers" FLAGS DCP INDEX 00 05:58:59FILE "14 - Hat Song.wav" WAVE INDEX 01 00:00:00 TRACK 15 AUDIO TITLE "Mony, Money, Money" PERFORMER "Kevin Ayers" FLAGS DCP INDEX 00 01:15:13FILE "15 - Mony, Money, Money.wav" WAVE INDEX 01 00:00:00 TRACK 16 AUDIO TITLE "Super Salesman" PERFORMER "Kevin Ayers" FLAGS DCP INDEX 00 03:12:24FILE "16 - Super Salesman.wav" WAVE INDEX 01 00:00:00 TRACK 17 AUDIO TITLE "Where Do the Stars End" PERFORMER "Kevin Ayers" FLAGS DCP INDEX 00 05:03:52FILE "17 - Where Do the Stars End.wav" WAVE INDEX 01 00:00:00

Disc 4 (70:46)

‘After the Show’ Live at the Queen Elizabeth Hall 1973 (Previously Unreleased)
Треклист:
01. Banana Introduction (3:10)
02. Stranger in Blue Suede Shoes (3:58)
03. Interview (7:51)
04. Whatevershebringswesing (7:23)
05. Oh! Wot a Dream (3:47)
06. Shouting in a Bucket Blues (5:17)
07. Caribbean Moon (3:34)
08. Don't Let It Get You Down (4:47)
09. We Did It Again (11:24)
10. Why Are We Sleeping (16:05)
11. After the Show (3:31)
 

Лог создания рипа

Exact Audio Copy V1.0 beta 3 from 29. August 2011
EAC extraction logfile from 13. October 2011, 19:04
Kevin Ayers / After The Show (Live at the Queen Elizabeth Hall 1973)
Used drive : BENQ DVD DD DW1640 Adapter: 1 ID: 1
Read mode : SecureUtilize accurate stream : YesDefeat audio cache : YesMake use of C2 pointers : No
Read offset correction : 618Overread into Lead-In and Lead-Out : NoFill up missing offset samples with silence : YesDelete leading and trailing silent blocks : NoNull samples used in CRC calculations : YesUsed interface : Native Win32 interface for Win NT & 2000Gap handling : Appended to previous track
Used output format : User Defined EncoderSelected bitrate : 768 kBit/sQuality : HighAdd ID3 tag : NoCommand line compressor : C:\Program Files\Exact Audio Copy\FLAC\FLAC.EXEAdditional command line options : -8 -V -T "ARTIST=%artist%" -T "TITLE=%title%" -T "ALBUM=%albumtitle%" -T "DATE=%year%" -T "TRACKNUMBER=%tracknr%" -T "GENRE=%genre%" -T "COMMENT=%comment%" -T "BAND=%albuminterpret%" -T "ALBUMARTIST=%albuminterpret%" -T "COMPOSER=%composer%" %haslyrics%--tag-from-file=LYRICS="%lyricsfile%"%haslyrics% -T "DISCNUMBER=%cdnumber%" -T "TOTALDISCS=%totalcds%" -T "TOTALTRACKS=%numtracks%" %hascover%--picture="%coverfile%"%hascover% %source% -o %dest%
TOC of the extracted CD
Track | Start | Length | Start sector | End sector --------------------------------------------------------- 1 | 0:00.00 | 3:09.39 | 0 | 14213 2 | 3:09.39 | 3:57.40 | 14214 | 32028 3 | 7:07.04 | 7:50.64 | 32029 | 67342 4 | 14:57.68 | 7:23.08 | 67343 | 100575 5 | 22:21.01 | 3:47.37 | 100576 | 117637 6 | 26:08.38 | 5:16.46 | 117638 | 141383 7 | 31:25.09 | 3:34.04 | 141384 | 157437 8 | 34:59.13 | 4:46.57 | 157438 | 178944 9 | 39:45.70 | 11:23.43 | 178945 | 230212 10 | 51:09.38 | 16:05.09 | 230213 | 302596 11 | 67:14.47 | 3:30.67 | 302597 | 318413
Track 1
Filename C:\@Rips@\Kevin Ayers - Songs For Insane Times (An Anthology 1969-1980) (2008) [FLAC]\Disc 4\01 - Banana Introduction.wav
Pre-gap length 0:00:02.00
Peak level 99.1 % Extraction speed 5.0 X Track quality 100.0 % Test CRC 90780489 Copy CRC 90780489 Accurately ripped (confidence 5) [BBA785C0] (AR v1) Copy OK
Track 2
Filename C:\@Rips@\Kevin Ayers - Songs For Insane Times (An Anthology 1969-1980) (2008) [FLAC]\Disc 4\02 - Stranger in Blue Suede Shoes.wav
Peak level 99.1 % Extraction speed 5.7 X Track quality 100.0 % Test CRC DB9E634A Copy CRC DB9E634A Accurately ripped (confidence 5) [69A1A769] (AR v1) Copy OK
Track 3
Filename C:\@Rips@\Kevin Ayers - Songs For Insane Times (An Anthology 1969-1980) (2008) [FLAC]\Disc 4\03 - Interview.wav
Peak level 97.5 % Extraction speed 6.8 X Track quality 100.0 % Test CRC 0D04214B Copy CRC 0D04214B Accurately ripped (confidence 5) [CF3FB92F] (AR v1) Copy OK
Track 4
Filename C:\@Rips@\Kevin Ayers - Songs For Insane Times (An Anthology 1969-1980) (2008) [FLAC]\Disc 4\04 - Whatevershebringswesing.wav
Peak level 99.1 % Extraction speed 7.5 X Track quality 100.0 % Test CRC A3F4EC5A Copy CRC A3F4EC5A Accurately ripped (confidence 5) [7F8677C7] (AR v1) Copy OK
Track 5
Filename C:\@Rips@\Kevin Ayers - Songs For Insane Times (An Anthology 1969-1980) (2008) [FLAC]\Disc 4\05 - Oh! Wot a Dream.wav
Peak level 85.1 % Extraction speed 7.4 X Track quality 100.0 % Test CRC 2C162702 Copy CRC 2C162702 Accurately ripped (confidence 5) [E3BE8256] (AR v1) Copy OK
Track 6
Filename C:\@Rips@\Kevin Ayers - Songs For Insane Times (An Anthology 1969-1980) (2008) [FLAC]\Disc 4\06 - Shouting in a Bucket Blues.wav
Peak level 95.8 % Extraction speed 8.0 X Track quality 100.0 % Test CRC 7945B21C Copy CRC 7945B21C Accurately ripped (confidence 5) [59F6E045] (AR v1) Copy OK
Track 7
Filename C:\@Rips@\Kevin Ayers - Songs For Insane Times (An Anthology 1969-1980) (2008) [FLAC]\Disc 4\07 - Caribbean Moon.wav
Peak level 88.0 % Extraction speed 8.0 X Track quality 100.0 % Test CRC 68B780CA Copy CRC 68B780CA Accurately ripped (confidence 5) [9C90A192] (AR v1) Copy OK
Track 8
Filename C:\@Rips@\Kevin Ayers - Songs For Insane Times (An Anthology 1969-1980) (2008) [FLAC]\Disc 4\08 - Don't Let It Get You Down.wav
Peak level 98.8 % Extraction speed 8.6 X Track quality 100.0 % Test CRC B8C8E36D Copy CRC B8C8E36D Accurately ripped (confidence 5) [406BBB88] (AR v1) Copy OK
Track 9
Filename C:\@Rips@\Kevin Ayers - Songs For Insane Times (An Anthology 1969-1980) (2008) [FLAC]\Disc 4\09 - We Did It Again.wav
Peak level 99.2 % Extraction speed 9.1 X Track quality 99.9 % Test CRC 0FD9225F Copy CRC 0FD9225F Accurately ripped (confidence 5) [63D15849] (AR v1) Copy OK
Track 10
Filename C:\@Rips@\Kevin Ayers - Songs For Insane Times (An Anthology 1969-1980) (2008) [FLAC]\Disc 4\10 - Why Are We Sleeping.wav
Peak level 99.2 % Extraction speed 10.3 X Track quality 99.9 % Test CRC A1E2FD55 Copy CRC A1E2FD55 Accurately ripped (confidence 5) [F4F5B29D] (AR v1) Copy OK
Track 11
Filename C:\@Rips@\Kevin Ayers - Songs For Insane Times (An Anthology 1969-1980) (2008) [FLAC]\Disc 4\11 - After the Show.wav
Peak level 94.3 % Extraction speed 10.0 X Track quality 100.0 % Test CRC 08DB2CAA Copy CRC 08DB2CAA Accurately ripped (confidence 5) [B04A54AB] (AR v1) Copy OK
All tracks accurately ripped
No errors occurred
End of status report
==== Log checksum FACAB518C395004E33BE598CFBF87FBC9186B5476BA2F5091A6BF81B7A676EE3 ====

Содержание индексной карты (.CUE)

REM GENRE Pop-RockREM DATE 2008REM DISCID 9610950BREM COMMENT "ExactAudioCopy v1.0b3"PERFORMER "Kevin Ayers"TITLE "After The Show (Live at the Queen Elizabeth Hall 1973) "FILE "01 - Banana Introduction.wav" WAVE TRACK 01 AUDIO TITLE "Banana Introduction" PERFORMER "Kevin Ayers" FLAGS DCP INDEX 01 00:00:00FILE "02 - Stranger in Blue Suede Shoes.wav" WAVE TRACK 02 AUDIO TITLE "Stranger in Blue Suede Shoes" PERFORMER "Kevin Ayers" FLAGS DCP INDEX 01 00:00:00FILE "03 - Interview.wav" WAVE TRACK 03 AUDIO TITLE "Interview" PERFORMER "Kevin Ayers" FLAGS DCP INDEX 01 00:00:00FILE "04 - Whatevershebringswesing.wav" WAVE TRACK 04 AUDIO TITLE "Whatevershebringswesing" PERFORMER "Kevin Ayers" FLAGS DCP INDEX 01 00:00:00FILE "05 - Oh! Wot a Dream.wav" WAVE TRACK 05 AUDIO TITLE "Oh! Wot a Dream" PERFORMER "Kevin Ayers" FLAGS DCP INDEX 01 00:00:00FILE "06 - Shouting in a Bucket Blues.wav" WAVE TRACK 06 AUDIO TITLE "Shouting in a Bucket Blues" PERFORMER "Kevin Ayers" FLAGS DCP INDEX 01 00:00:00FILE "07 - Caribbean Moon.wav" WAVE TRACK 07 AUDIO TITLE "Caribbean Moon" PERFORMER "Kevin Ayers" FLAGS DCP INDEX 01 00:00:00FILE "08 - Don't Let It Get You Down.wav" WAVE TRACK 08 AUDIO TITLE "Don't Let It Get You Down" PERFORMER "Kevin Ayers" FLAGS DCP INDEX 01 00:00:00FILE "09 - We Did It Again.wav" WAVE TRACK 09 AUDIO TITLE "We Did It Again" PERFORMER "Kevin Ayers" FLAGS DCP INDEX 01 00:00:00FILE "10 - Why Are We Sleeping.wav" WAVE TRACK 10 AUDIO TITLE "Why Are We Sleeping" PERFORMER "Kevin Ayers" FLAGS DCP INDEX 01 00:00:00FILE "11 - After the Show.wav" WAVE TRACK 11 AUDIO TITLE "After the Show" PERFORMER "Kevin Ayers" FLAGS DCP INDEX 01 00:00:00
 

Об издании

2008 four CD anthology that covers Ayers' musical career from 1969 to 1980; a period most fans and critics deem his best. Ayers remains one of Rock's oddest enigmas. He makes ordinary subjects extraordinary with his rich low vocals and inventive wordplay. He projects the image of a Prog-Rock beach bum writing about life's absurdities with a celebratory, relaxed detachment, yet he is also one of Prog- Rock's more important innovators, helping to launch the Soft Machine, and working with noted progressive musicians Mike Oldfield, Lol Coxhill, and Steve Hillage. Ayers' solo material reflected a Folksier, lazier, and gentler turn than Soft Machine. He was often compared to Syd Barrett, but without the madness and is never less than enjoyable and original, Discs One to Three contain 49 hits, album tracks and more while Disc Four was recorded at The Queen Elizabeth Hall, London on 25th May 1973.
Five years on from the peerless remastering of Kevin Ayers' core (Harvest label) catalog, Songs for Insane Times dips into much the same bag of tricks for a four-CD anthology that truly does reflect upon everything that made his earliest albums such a timeless joy. Traversing a decade's worth of releases from the delightful debut Joy of a Toy on, the three discs that carry Ayers through to 1980's That's What You Get Babe are an almost peerless gathering; key album cuts are joined by the string of 45s that he so typically omitted from the long-players, and if there's a disappointing lack of unreleased cuts here, that's only because the remasters cleaned them up long ago. Two discs take listeners through the very best of Ayers, up to and including 1974's Confessions of Dr. Dream and Other Stories (the accompanying "After the Show" single opens disc three); the third wraps up the lesser but still enjoyable late-'70s output; and while one can bemoan the absence of anything from the so-crucial June 1, 1974 live album, disc four makes up for that with a full 1973 concert, unreleased in any form until now. Indeed, shop around for the best price and Songs for Insane Times is worth buying simply for the live show, which captures Ayers and his then current 747 band carving exquisitely sharp edges through "Stranger in Blue Suede Shoes," "Shouting in a Bucket Blues," and "Caribbean Moon" (among others), before devoting no less than 25 minutes to maniacal jams through "We Did It Again" and "Why Are We Sleeping?" Perfection! Returning to the studio sides, a few fan favorites have probably slipped through the netting (no "Everybody's Sometime…Blues," "Falling in Love Again," or the 45-rpm version of "Lady Rachel," to name but three). But "Girl on a Swing," "May I?," "Song from the Bottom of a Well," "Decadence," and the full "Confessions of Doctor Dream" suite are here, and anybody who professes themselves indisposed toward Sweet Deceiver and its late-'70s successors might well revise their opinion by the time "Where Do the Stars End?" wraps up disc three.


[torrentc.info]_t_5563140.torrent
Торрент: Зарегистрирован ·  [ 2018-05-19 23:11 ] ·  5c8b97a91bb50c8b7e4fbf10f47385225defd1e1

22 KB

Статус: проверено
Скачан: 0 раз
Размер: 1.57 GB
Оценка: 
(Голосов: 0)
Сказали спасибо: 0  Спасибо
Похожие темы
[Профиль]    [ЛС]
Показать сообщения:    
Ответить на тему

Текущее время: Сегодня 10:24

Часовой пояс: GMT + 7



Вы не можете начинать темы
Вы не можете отвечать на сообщения
Вы не можете редактировать свои сообщения
Вы не можете удалять свои сообщения
Вы не можете голосовать в опросах
Вы не можете прикреплять файлы к сообщениям
Вы можете скачивать файлы