(Progressive Rock, Symphonic Prog, Classic Rock, Modern Classical) [CD] Rick Wakeman - In Concert - 1995 (King Biscuit Flower Hours), FLAC (tracks+.cue), lossless

Ответить на тему
Статистика раздачи [Обновить пиров]
Размер:  547 MB   |    Зарегистрирован:  1 месяц 3 дня   |    Скачан:  0 раз

Полного источника не было: Никогда

 
   
 
 
 
Автор Сообщение

torrentc.info

Создавать темы 19-Май-2018 23:14

[Цитировать]

--Rick Wakeman - In Concert - 1995 (King Biscuit Flower Hours)-- Жанр: Progressive Rock, Symphonic Prog, Classic Rock, Modern Classical
Носитель: CD (Album, Remastered, Live, Archival)
Страна-производитель диска (релиза): Canada
Год издания: 1995
Издатель (лейбл): King Biscuit Flower Hours Records
Номер по каталогу: 70710 88009 2 0
Страна исполнителя (группы) : UK
Дата / место записи: Winterland Theater in San Francisco on November, 2nd, 1975
Аудио кодек: FLAC (*.flac)
Тип рипа: (tracks + .cue)
Битрейт аудио: lossless
Наличие сканов в содержимом раздачи: full scans, png, 300 dpi
Продолжительность: 75:29
Источник (релизер): Mininova
Трэклист:
1 - Journey to the Center of the Earth (12:03)
2 - Catherine Howard (11:42)
3 - Lancelot & the Black Knight (05:30)
4 - Anne Boleyn (08:57)
5 - The Forrest (06:43)
6 - Arthur & Guinevere (14:40)
7 - Merlyn the Magician (07:21)
8 - Catherine Parr (08:29)
Recordings Are Taken From The Extensive King Biscuit Archives, Remixed And Digitally Remastered From The Original Multi-track Masters
Премии и рейтинги:
ProgArchives - 3.94 | 15 ratings

Лог создания рипа

EAC extraction logfile from 1. April 2006, 13:10 for CDRick Wakeman / In ConcertUsed drive : MATSHITADVD-RAM UJ-832S Adapter: 1 ID: 0Read mode : Secure with NO C2, accurate stream, disable cacheRead offset correction : 102Overread into Lead-In and Lead-Out : No
Used output format : Internal WAV Routines 44.100 Hz; 16 Bit; Stereo
Other options : Fill up missing offset samples with silence : Yes Delete leading and trailing silent blocks : No Native Win32 interface for Win NT & 2000
Track 1 Filename F:\MRIP\Rick Wakeman- King Biscuit\01 - Journey to the Center of the Earth.wav
Pre-gap length 0:00:02.00
Peak level 94.0 % Track quality 100.0 % Test CRC A53A009A Copy CRC A53A009A Copy OK
Track 2 Filename F:\MRIP\Rick Wakeman- King Biscuit\02 - Catherine Howard.wav
Peak level 97.0 % Track quality 99.9 % Test CRC 5D899A2C Copy CRC 5D899A2C Copy OK
Track 3 Filename F:\MRIP\Rick Wakeman- King Biscuit\03 - Lancelot & the Black Knight.wav
Peak level 98.0 % Track quality 100.0 % Test CRC 9DD071C4 Copy CRC 9DD071C4 Copy OK
Track 4 Filename F:\MRIP\Rick Wakeman- King Biscuit\04 - Anne Boleyn.wav
Peak level 97.5 % Track quality 100.0 % Test CRC 912BF534 Copy CRC 912BF534 Copy OK
Track 5 Filename F:\MRIP\Rick Wakeman- King Biscuit\05 - The Forrest.wav
Peak level 84.9 % Track quality 99.9 % Test CRC 190440B4 Copy CRC 190440B4 Copy OK
Track 6 Filename F:\MRIP\Rick Wakeman- King Biscuit\06 - Arthur & Guinevere.wav
Peak level 80.5 % Track quality 100.0 % Test CRC 80D6BB51 Copy CRC 80D6BB51 Copy OK
Track 7 Filename F:\MRIP\Rick Wakeman- King Biscuit\07 - Merlyn the Magician.wav
Peak level 79.4 % Track quality 100.0 % Test CRC C75E9285 Copy CRC C75E9285 Copy OK
Track 8 Filename F:\MRIP\Rick Wakeman- King Biscuit\08 - Catherine Parr.wav
Peak level 82.5 % Track quality 100.0 % Test CRC 1B257ACB Copy CRC 1B257ACB Copy OK
No errors occured
End of status report

Содержание индексной карты (.CUE):

REM DISCID 7911B108REM COMMENT "ExactAudioCopy v0.95b3"PERFORMER "Rick Wakeman"TITLE "In Concert"FILE "01 - Journey to the Center of the Earth.wav" WAVE TRACK 01 AUDIO TITLE "Journey to the Center of the Earth" PERFORMER "Rick Wakeman" INDEX 01 00:00:00FILE "02 - Catherine Howard.wav" WAVE TRACK 02 AUDIO TITLE "Catherine Howard" PERFORMER "Rick Wakeman" INDEX 01 00:00:00FILE "03 - Lancelot & the Black Knight.wav" WAVE TRACK 03 AUDIO TITLE "Lancelot & the Black Knight" PERFORMER "Rick Wakeman" INDEX 01 00:00:00FILE "04 - Anne Boleyn.wav" WAVE TRACK 04 AUDIO TITLE "Anne Boleyn" PERFORMER "Rick Wakeman" INDEX 01 00:00:00FILE "05 - The Forrest.wav" WAVE TRACK 05 AUDIO TITLE "The Forrest" PERFORMER "Rick Wakeman" INDEX 01 00:00:00FILE "06 - Arthur & Guinevere.wav" WAVE TRACK 06 AUDIO TITLE "Arthur & Guinevere" PERFORMER "Rick Wakeman" INDEX 01 00:00:00FILE "07 - Merlyn the Magician.wav" WAVE TRACK 07 AUDIO TITLE "Merlyn the Magician" PERFORMER "Rick Wakeman" INDEX 01 00:00:00FILE "08 - Catherine Parr.wav" WAVE TRACK 08 AUDIO TITLE "Catherine Parr" PERFORMER "Rick Wakeman" INDEX 01 00:00:00

Лог проверки качества

-----------------------
DON'T MODIFY THIS FILE
-----------------------
PERFORMER: auCDtect Task Manager, ver. 1.6.0 RC1 build 1.6.0.1Copyright (c) 2008-2010 y-soft. All rights reservedhttp://y-soft.org
ANALYZER: auCDtect: CD records authenticity detector, version 0.8.2Copyright (c) 2004 Oleg Berngardt. All rights reserved.Copyright (c) 2004 Alexander Djourik. All rights reserved.
FILE: 08 - Catherine Parr.flac Size: 50746096 Hash: 34DDCA91F3BEE88CC345D9A8CF2A57D1 Accuracy: -m0 Conclusion: CDDA 100% Signature: F8AD76F6655A768CFE7897423EB4ABF36F1A21A0FILE: 07 - Merlyn the Magician.flac Size: 44468024 Hash: 694D9DD4351E2EC4BB543805FBD02373 Accuracy: -m0 Conclusion: CDDA 99% Signature: 4BB5784B16B1DB538B0F7CD1D9B788A0DF07CE6BFILE: 06 - Arthur & Guinevere.flac Size: 94375750 Hash: 9D81871171D92957E8A08B8BCA7F446F Accuracy: -m0 Conclusion: CDDA 100% Signature: 1F8BE23D2D744A7614B928A14309758076C5BBBBFILE: 05 - The Forrest.flac Size: 47724931 Hash: 450DC4D5F42BD00446F7270C73C42436 Accuracy: -m0 Conclusion: CDDA 100% Signature: 9DAE46D7C96156022E63941821BDB84E42CF0C43FILE: 04 - Anne Boleyn.flac Size: 62744163 Hash: 84D86D89D67E67F707A7BF23904EC9BB Accuracy: -m0 Conclusion: CDDA 100% Signature: 9D492993537C9E002097F6767285BD5C80C325B8FILE: 03 - Lancelot & the Black Knight.flac Size: 40084334 Hash: DF952174705A5EE4FE17BAA82D044815 Accuracy: -m0 Conclusion: CDDA 100% Signature: 4C4D09E1F5000DDDD531AB5EF781EB15185336CDFILE: 02 - Catherine Howard.flac Size: 76197074 Hash: B9D9D81DE5CCB80396B87A6946D36869 Accuracy: -m0 Conclusion: CDDA 100% Signature: 46305FD5161704E29997ABC7CC38CA16D947F0E4FILE: 01 - Journey to the Center of the Earth.flac Size: 83858918 Hash: BFACFA108A93AE9DC9BFC4981CB5E789 Accuracy: -m0 Conclusion: CDDA 100% Signature: 7C1769138EEFCF477E465E71A17524E4ACD39C3C

Замер динамического диапазона

-

Back

Состав

Rick Wakeman: keyboards
Ashley Holt: vocals
John Dunsterville: guitars & mandolin
John Hodgson: percussion
Martyn Shields: trumpet
Reg Brooks: trombone
Roger Newell: bass, vocals
Tony Fernandez: drums
-


[torrentc.info]_t_5563797.torrent
Торрент: Зарегистрирован ·  [ 2018-05-19 23:11 ] ·  b4681ae7be4007bfa7c19ced531e52d579b6ef89

12 KB

Статус: проверено
Скачан: 0 раз
Размер: 547 MB
Оценка: 
(Голосов: 0)
Сказали спасибо: 0  Спасибо
Похожие темы
[Профиль]    [ЛС]
Показать сообщения:    
Ответить на тему

Текущее время: Сегодня 09:58

Часовой пояс: GMT + 7



Вы не можете начинать темы
Вы не можете отвечать на сообщения
Вы не можете редактировать свои сообщения
Вы не можете удалять свои сообщения
Вы не можете голосовать в опросах
Вы не можете прикреплять файлы к сообщениям
Вы можете скачивать файлы