(RPI) [CD] La Dottrina degli Opposti — Arrivederci Sogni — 2018; FLAC (image+.cue), lossless

Ответить на тему
Статистика раздачи [Обновить пиров]
Размер:  508 MB   |    Зарегистрирован:  6 месяцев 28 дней   |    Скачан:  0 раз

Полного источника не было: Никогда

 
   
 
 
 
Автор Сообщение

torrentc.info

Создавать темы 19-Май-2018 23:13

[Цитировать]

La Dottrina degli Opposti — Arrivederci Sogni (2018) Жанр: Progressive rock/RPI
Страна исполнителя: Italy
Год выхода диска: 2018
Производитель диска: Italy (AltrOck Productions/Fading Records)
Номер по каталогу: FAD-026
Аудио кодек: FLAC
Тип рипа: image+.cue
Битрейт аудио: lossless
Продолжительность: 00:39:58
Наличие сканов в содержимом раздачи: да
Источник: Torrentc моя коллекция CD
Треклист:
01. Dove Dio Dipinge le Nuvole [03:28.493]
02. Nero, Grigio e Tu [09:10.000]
03. Equilibrio [02:31.000]
04. Sulla via del Ritorno [05:42.000]
05. La Riconquista della Posizione Eretta [05:22.000]
06. Quiete [02:36.000]
07. Fra le Dita [11:09.000]
Line-up:
Andrea Lotti — piano, keyboards, guitar, mandolin, accordion

With:
Gabriele Guidi Colombi — bass
Francesco Ciapica — vocals
Paolo Tixi — drums
Marianna Brondello — violin
Yulia Verbistkaya — violin
Caterina Alifredi — violin
Manuela Morreale — viola
Chiara do Benedetto — cello
Giorgio Boffa — double bass
Nadia Khreiwesh — flute
Luisella Cravero — clarinet
Luca Tarantino — oboe
Michele Danzi — bassoon
Marco di Giuseppe — contra alto saxophone
Giuseppe Notabella — trumpet
Michele Verra — trumpet
Lorenzo Reina — trombone
Filippo Ruà — tuba
Andrea Ternavasio — horn
Valeria Delmastro — harp
Luca Viotto — percussion

Отчёт EAC

Exact Audio Copy V1.3 from 2. September 2016
Отчёт EAC об извлечении, выполненном 18. мая 2018, 18:24
LA DOTTRINA DEGLI OPPOSTI / Arrivederci Sogni
Дисковод: TSSTcorpCDDVDW SH-224DB Adapter: 1 ID: 0
Режим чтения : ДостоверностьИспользование точного потока : ДаОтключение кэша аудио : ДаИспользование указателей C2 : Нет
Коррекция смещения при чтении : 6Способность читать области Lead-in и Lead-out : НетЗаполнение пропущенных сэмплов тишиной : ДаУдаление блоков с тишиной в начале и конце : НетПри вычислениях CRC использовались нулевые сэмплы : ДаИнтерфейс : Встроенный Win32-интерфейс для Win NT/2000
Выходной формат : Внутренние WAV-операцииФормат файла сэмплов : 44.100 Гц; 16 бит; стерео
TOC извлечённого CD
Трек | Старт | Длительность | Начальный сектор | Конечный сектор --------------------------------------------------------------------- 1 | 0:00.00 | 3:28.37 | 0 | 15636 2 | 3:28.37 | 9:10.00 | 15637 | 56886 3 | 12:38.37 | 2:31.00 | 56887 | 68211 4 | 15:09.37 | 5:42.00 | 68212 | 93861 5 | 20:51.37 | 5:22.00 | 93862 | 118011 6 | 26:13.37 | 2:36.00 | 118012 | 129711 7 | 28:49.37 | 11:09.00 | 129712 | 179886
Характеристики диапазона извлечения и сообщения об ошибках
Выбранный диапазон
Имя файла D:\TEMP\LA DOTTRINA DEGLI OPPOSTI - 2018 - Arrivederci Sogni [Fading Records, FAD-026].wav
Пиковый уровень 100.0 % Скорость извлечения 6.7 X Качество диапазона 100.0 % CRC теста E3EF5376 CRC копии E3EF5376 Копирование... OK
Ошибок не произошло
AccurateRip: сводка
Трек 1 отсутствует в базе данныхТрек 2 отсутствует в базе данныхТрек 3 отсутствует в базе данныхТрек 4 отсутствует в базе данныхТрек 5 отсутствует в базе данныхТрек 6 отсутствует в базе данныхТрек 7 отсутствует в базе данных
Ни одного трека нет в базе AccurateRip
Конец отчёта
==== Контрольная сумма отчёта B99DE9A2ABDCE6DA34E2C9447D5482597BC3622F0566A7AF4323A451FFBB98DA ====

CUE-файл для проигрывания (для WAV также имеется)

REM GENRE "Rock Progressivo Italiano"REM DATE 2018REM DISCID 46095E07REM COMMENT "ExactAudioCopy v1.3"PERFORMER "LA DOTTRINA DEGLI OPPOSTI"TITLE "Arrivederci Sogni"FILE "LA DOTTRINA DEGLI OPPOSTI - 2018 - Arrivederci Sogni [Fading Records, FAD-026].flac" WAVE TRACK 01 AUDIO TITLE "Dove Dio Dipinge le Nuvole" PERFORMER "LA DOTTRINA DEGLI OPPOSTI" FLAGS DCP INDEX 01 00:00:00 TRACK 02 AUDIO TITLE "Nero, Grigio e Tu" PERFORMER "LA DOTTRINA DEGLI OPPOSTI" FLAGS DCP INDEX 01 03:28:37 TRACK 03 AUDIO TITLE "Equilibrio" PERFORMER "LA DOTTRINA DEGLI OPPOSTI" FLAGS DCP INDEX 01 12:38:37 TRACK 04 AUDIO TITLE "Sulla via del Ritorno" PERFORMER "LA DOTTRINA DEGLI OPPOSTI" FLAGS DCP INDEX 01 15:09:37 TRACK 05 AUDIO TITLE "La Riconquista della Posizione Eretta" PERFORMER "LA DOTTRINA DEGLI OPPOSTI" FLAGS DCP INDEX 01 20:51:37 TRACK 06 AUDIO TITLE "Quiete" PERFORMER "LA DOTTRINA DEGLI OPPOSTI" FLAGS DCP INDEX 01 26:13:37 TRACK 07 AUDIO TITLE "Fra le Dita" PERFORMER "LA DOTTRINA DEGLI OPPOSTI" FLAGS DCP INDEX 01 28:49:37

Матрица CD

Динамический диапазон

foobar2000 1.3.17 / Dynamic Range Meter 1.1.1log date: 2018-05-18 18:29:04
---------------------------------------------------------------------------------Analyzed: LA DOTTRINA DEGLI OPPOSTI / Arrivederci Sogni---------------------------------------------------------------------------------
DR Peak RMS Duration Track---------------------------------------------------------------------------------DR8 -0.38 dB -13.06 dB 3:28 01-Dove Dio Dipinge le NuvoleDR9 -0.04 dB -12.87 dB 9:10 02-Nero, Grigio e TuDR8 -0.74 dB -13.18 dB 2:31 03-EquilibrioDR9 -0.02 dB -12.85 dB 5:42 04-Sulla via del RitornoDR9 0.00 dB -11.93 dB 5:22 05-La Riconquista della Posizione ErettaDR9 -4.35 dB -15.26 dB 2:36 06-QuieteDR8 -0.03 dB -12.39 dB 11:09 07-Fra le Dita---------------------------------------------------------------------------------
Number of tracks: 7Official DR value: DR9
Samplerate: 44100 HzChannels: 2Bits per sample: 16Bitrate: 763 kbpsCodec: FLAC=================================================================================

-
Краткая информацияСайд-проект одного из участников известной группы La Coscienza di ZenoАндреа Лотти — с участием известного и талантливого Габриеля Гуиди Коломби из той же группы, а также вокалиста и барабанщика другого известного коллектива Il Tempio delle Clessidre.-

Мои раздачи в разделах “Jazz Fusion”, “Отечественный джаз” и “Avant-Garde Jazz, Free Improvisation”

[Jazz Fusion]
AHVENLAHTI, Olli: “Bandstand” (1975), “The Poet” (1976)
CATALYST: The Complete Recordings Vol. 1 & 2
DE BRUYNE, Koen: “Here Comes The Crazy Man!” (1974)
FORTY SEVEN TIMES ITS OWN WEIGHT: “Cumulo Nimbus” (1975)
Henry LOWTHER Band: “Child Song” (1970)
KASZAKŐ: “Édenkert” (1983)
KEYBOARD CIRCLE, THE: “1976” (1976)
LAFERRIÈRE, Yves: “Yves Laferrière” (1978)
LIEVONEN, Make: “Make Lievonen” (1977)
MAJOR SURGERY: “The First Cut” (1976)
MALOO: “Spaces Of Reflection” (1976), “All About The Things” (1977–78)
Miho Kei & JAZZ ELEVEN: “Kokezaru Kumikyoku” (1971)
PLACEBO (Marc Moulin): “Ball Of Eyes” (1971), “1973” (1973), “Placebo” (1974)
SOLIS LACUS: “Solis Lacus” (1975)
TEE & COMPANY: “Sonnet”/“Dragon Garden”/“Spanish Flower” (1978)
WAGNON, Marc: “Shadowlines” (1988), “An Afterthought” (1999), “Conjunction” (2001), “Earth Is A Cruel Master” (2010)
[Avant-Garde Jazz, Free Improvisation]
COLLECTIF MU: “Don Quichotte” (1997)
Keith TIPPETT Group, The: “You Are Here... I Am There” (1970), “Dedicated To You, But You Weren’t Listening” (1971)
PERCEPTION (Yochk’o Seffer,...): “Perception” (1971), “Perception & Friends” (1972), “Mestari” (1973)
[Отечественный джаз]
ГУНЕШ: “Гунеш” (1980)
Зацените!

Мои раздачи в жанре Прог-Электроники и близких к ней

AGUILAR, Ildefonso: “Erósion” (1978)
BESOMBES, Philippe: “Libra” (1975), “Pôle” (1975), “Ceci Est Celà” (1979)
BLAKE, Tim: “Crystal Machine” (1977), “Blake’s New Jerusalem” (1978)
COSMIC GROUND: “Cosmic Ground” (2014)
COZMIC CORRIDORS: “Cozmic Corridors” (1973)
ELEKTRIKTUS: “Electronic Mind Waves” (1976)
GALACTIC EXPLORERS: “Epitaph For Venus” (1972)
GRANCHER, Philippe: “3000 Miles Away” (1975)
GUÉRIN, Jean: “Tacet” (1971)
JONATHAN: “Jonathan” (1978)
KARG, Jürgen: “Elektronische Mythen” (1977)
KLUSTER (Moebius/Roedelius/Schnitzler): “Klорfzeichen” (1970), “Zwеi Ostеrеi” & “Eruрtiоn” (1971)
KOSUGI, Takehisa: “Catch-Wave” (1975)
MOOLAH: “Woe Ye Demons Possessed” (1974)
NAZGÛL, THE: “The Nazgûl” (1975)
OSE: “Adonia” (1978)
SCHULZE, Klaus: “Shadowlands” (2013)
SEESSELBERG, Eckhart & Wolf-J.: “Synthetik 1” (1973)
SPACECRAFT: “Paradoxe” (1978)
SYRINX: “Syrinx” (1970), “Long Lost Relatives” (1971)
TAKADA, Midori: “Through The Looking Glass” (1983)
VANGELIS: “Heaven And Hell” (1975), “Albedo 0.39” (1976), “Spiral” (1977), “Beaubourg” (1978), “Direct” (1988)
VANGELIS: “Delectus: The Polydor & Vertigo Recordings, 1973–1985” (2017, 13CD box)
VIAN, Patrick: “Bruits et Temps Analogues” (1976)
ZANOV: “Virtual Future” (2014), “Open Worlds” (2016)
ZANOV: “Green Ray” (1976), “Moebius 256 301” (1977), “In Course Of Time” (1982)
Z / Bernard SZajner: “Visions Of Dune” (1979)
Зацените!
-
Всех благодарю за внимание!


[torrentc.info]_t_5563811.torrent
Торрент: Зарегистрирован ·  [ 2018-05-19 23:11 ] ·  9055001db05a8068fccf8f972c0a90b6bda4c6f6

22 KB

Статус: проверено
Скачан: 0 раз
Размер: 508 MB
Оценка: 
(Голосов: 0)
Сказали спасибо: 0  Спасибо
Похожие темы
[Профиль]    [ЛС]
Показать сообщения:    
Ответить на тему

Текущее время: Сегодня 21:35

Часовой пояс: GMT + 7



Вы не можете начинать темы
Вы не можете отвечать на сообщения
Вы не можете редактировать свои сообщения
Вы не можете удалять свои сообщения
Вы не можете голосовать в опросах
Вы не можете прикреплять файлы к сообщениям
Вы можете скачивать файлы