Папа, мама, служанка и я / Papa, maman, la bonne et moi... (Жан-Поль ле Шануа / Jean-Paul Le Chanois) [1954, Франция, комедия, мелодрама, Telesync > DVD] [Советская прокатная копия] Dub (Горького)

Ответить на тему
Статистика раздачи [Обновить пиров]
Размер:  3.86 GB   |    Зарегистрирован:  1 месяц 8 дней   |    Скачан:  0 раз

Полного источника не было: Никогда

 
   
 
 
 
Автор Сообщение

torrentc.info

Создавать темы 14-Май-2018 17:45

[Цитировать]

Папа, мама, служанка и я / Papa, maman, la bonne et moi... [Советская прокатная копия]- Страна: Франция
Жанр: комедия, мелодрама
Год выхода: 1954
Продолжительность: 01:32:30-Перевод: Профессиональный (дублированный) - Киностудия им. М. Горького
Субтитры: нет-Режиссер: Жан-Поль ле Шануа / Jean-Paul Le Chanois
В ролях: Робер Ламурё, Николь Курсель, Фернан Леду, Габи Морле, Луи де Фюнес, Иоланда Лаффон, Мадлен Барбюле, Софи Малле, Гастон Модо, Жани Вальере, Робер Ролли, Софи Сель, Доминик Даврэ, Жюдит Магр, Аликс Майе, Альбер Мишель, Клод Кастен, Рене-Жан Шоффар, Рене Флёр, Робер Ле Беаль...- | : -Описание: Фильм рассказывает о том, как молодой адвокат Робер Ланглуа полюбил студентку Катрин и как им обоим удалось "приручить" родителей и добиться их согласия на брак.-Семпл: http://sendfile.su/1418184-Тип релиза: Telesync
Формат файла: DVD-Video
Видео: 704x576 (4:3), 25.000 fps, MPEG-2 Video, ~5574 Kbps, 0.550 bits/pixel
Аудио: Русский, 48.0 KHz, AC3, 2 ch, 256 Kbps

DVDInfo

Title: Папа, мама, служанка и я 1954 Dub ГорькогоSize: 3.86 Gb ( 4 046 644,00 KBytes ) - DVD-5Enabled regions: 1, 2, 3, 4, 5, 6, 7, 8
VTS_01 : Play Length: 01:32:30 Video: PAL 4:3 (704x576) VBR Audio: Russian, AC3, 2/0 (L,R) ch, 256 kbps, Delay 0 mSec

MediaInfo

GeneralComplete name : \Папа, мама, служанка и я 1954 Dub Горького\VIDEO_TS\VTS_01_1.VOBFormat : MPEG-PSFile size : 1 024 MiBDuration : 24 min 4 sOverall bit rate mode : VariableOverall bit rate : 5 949 kb/s
VideoID : 224 (0xE0)Format : MPEG VideoFormat version : Version 2Format profile : Main@MainFormat settings : BVOPFormat settings, BVOP : YesFormat settings, Matrix : DefaultFormat settings, GOP : M=3, N=12Format settings, picture structure : FrameDuration : 24 min 4 sBit rate mode : VariableBit rate : 5 574 kb/sMaximum bit rate : 9 579 kb/sWidth : 704 pixelsHeight : 576 pixelsDisplay aspect ratio : 4:3Frame rate : 25.000 FPSStandard : PALColor space : YUVChroma subsampling : 4:2:0Bit depth : 8 bitsScan type : InterlacedScan order : Top Field FirstCompression mode : LossyBits/(Pixel*Frame) : 0.550Time code of first frame : 00:00:00:00Time code source : Group of pictures headerStream size : 960 MiB (94%)Color primaries : BT.601 PALTransfer characteristics : BT.470 System B/GMatrix coefficients : BT.470 System B/G
AudioID : 189 (0xBD)-128 (0x80)Format : AC-3Format/Info : Audio Coding 3Muxing mode : DVD-VideoDuration : 24 min 3 sBit rate mode : ConstantBit rate : 256 kb/sChannel(s) : 2 channelsChannel positions : Front: L RSampling rate : 48.0 kHzFrame rate : 31.250 FPS (1536 SPF)Bit depth : 16 bitsCompression mode : LossyStream size : 44.1 MiB (4%)Service kind : Complete Main
Menu


[torrentc.info]_t_5559597.torrent
Торрент: Зарегистрирован ·  [ 2018-05-14 17:45 ] ·  ce953067f1ac1c5e28191b07c85e50081637738c

20 KB

Статус: проверено
Скачан: 0 раз
Размер: 3.86 GB
Оценка: 
(Голосов: 0)
Сказали спасибо: 0  Спасибо
Похожие темы
[Профиль]    [ЛС]
Показать сообщения:    
Ответить на тему

Текущее время: Сегодня 09:59

Часовой пояс: GMT + 7



Вы не можете начинать темы
Вы не можете отвечать на сообщения
Вы не можете редактировать свои сообщения
Вы не можете удалять свои сообщения
Вы не можете голосовать в опросах
Вы не можете прикреплять файлы к сообщениям
Вы можете скачивать файлы