(Gothic Rock/Darkwave) [CD] L\'Âme Immortelle (L\'Ame Immortelle) - Hinter dem Horizont (Limited Edition) - 2018, FLAC (image+.cue), lossless

Ответить на тему
Статистика раздачи [Обновить пиров]
Размер:  815 MB   |    Зарегистрирован:  3 месяца 3 дня   |    Скачан:  0 раз
Сидеров:  1  [  0 KB/s  ]   Подробная статистика скачивающих
 
   
 
 
 
Автор Сообщение

torrentc.info

Создавать темы 13-Май-2018 20:24

[Цитировать]

L'Âme Immortelle / Hinter dem Horizont (Limited Edition)
Жанр: Gothic Rock/Darkwave
Носитель: CD
Страна-производитель диска (релиза): Germany
Год издания: 2018
Издатель (лейбл): Trisol
Номер по каталогу: TRI 604 CD
Страна исполнителя (группы): Austria
Аудиокодек: FLAC (*.flac)
Тип рипа: image+.cue
Битрейт аудио: lossless
Продолжительность: 2:05:25
Источник (релизер): свой рип
Наличие сканов в содержимом раздачи: нет

Треклист

CD1
01. Undenlich (5:16)
02. Letztes Licht (5:16)
03. Treiben (5:14)
04. Am Ende aller Tage (4:31)
05. Dein Kuss (4:02)
06. Memories (5:12)
07. Monument (5:04)
08. Schwerkraft (5:18)
09. Frei (4:57)
10. Hinter dem Horizont (4:52)
CD2: Schattenwelten
01. Memories (Acoustic Version) (4:15)
02. Stay (4:44)
03. Unendlich (Club Version) (5:53)
04. Hinter dem Horizont (Project Pitchfork feat. Sue) (4:58)
05. Unendlich (Remix by Zeromancer) (6:35)
06. Frei (Rotersand Rework) (4:23)
07. Dein Kuss (Remix by Frozen Plasma) (4:19)
08. Am Ende aller Tage (Remix by We Are Temporary) (3:09)
09. Letztes Licht (Remix by Exfeind) (3:58)
10. Treiben (Remix by Versus) (5:27)
11. Schwerkraft (Remix by Metallspurhunde) (4:52)
CD3: Linear Notes
01. Undenlicht (3:01)
02. Letztes Licht (3:07)
03. Treiben (1:29)
04. Am Ende aller Tage (3:25)
05. Dein Kuss (1:50)
06. Memories (2:08)
07. Monument (0:51)
08. Schwerkraft (1:28)
09. Frei (1:20)
10. Hinter dem Horizont (1:25)
11. Stay (3:07)

Лог создания рипаCD1

Exact Audio Copy V1.0 beta 3 from 29. August 2011
EAC extraction logfile from 8. May 2018, 14:05
L'Âme Immortelle / Hinter dem Horizont - limited edition
Used drive : SlimtypeDVD A DS8A4S Adapter: 1 ID: 0
Read mode : SecureUtilize accurate stream : YesDefeat audio cache : YesMake use of C2 pointers : No
Read offset correction : 6Overread into Lead-In and Lead-Out : NoFill up missing offset samples with silence : YesDelete leading and trailing silent blocks : NoNull samples used in CRC calculations : YesUsed interface : Native Win32 interface for Win NT & 2000
Used output format : Internal WAV RoutinesSample format : 44.100 Hz; 16 Bit; Stereo
TOC of the extracted CD
Track | Start | Length | Start sector | End sector --------------------------------------------------------- 1 | 0:00.00 | 5:16.15 | 0 | 23714 2 | 5:16.15 | 5:16.20 | 23715 | 47434 3 | 10:32.35 | 5:13.71 | 47435 | 70980 4 | 15:46.31 | 4:31.20 | 70981 | 91325 5 | 20:17.51 | 4:01.66 | 91326 | 109466 6 | 24:19.42 | 5:11.47 | 109467 | 132838 7 | 29:31.14 | 5:03.52 | 132839 | 155615 8 | 34:34.66 | 5:17.46 | 155616 | 179436 9 | 39:52.37 | 4:56.52 | 179437 | 201688 10 | 44:49.14 | 4:51.49 | 201689 | 223562
Range status and errors
Selected range
Filename C:\Users\Nikolai\Documents\cdrips\L'Âme Immortelle - Hinter dem Horizont - limited edition.wav
Peak level 98.8 % Extraction speed 4.2 X Range quality 100.0 % Test CRC AB0FE908 Copy CRC AB0FE908 Copy OK
No errors occurred
AccurateRip summary
Track 1 accurately ripped (confidence 6) [9D75170D] (AR v2)Track 2 accurately ripped (confidence 6) [C4DD56F3] (AR v2)Track 3 accurately ripped (confidence 6) [63625017] (AR v2)Track 4 accurately ripped (confidence 6) [EBD14AD4] (AR v2)Track 5 accurately ripped (confidence 6) [67F316CC] (AR v2)Track 6 accurately ripped (confidence 6) [5EDD5E48] (AR v2)Track 7 accurately ripped (confidence 6) [FF3F7AF3] (AR v2)Track 8 accurately ripped (confidence 6) [B7F61424] (AR v2)Track 9 accurately ripped (confidence 6) [A604E323] (AR v2)Track 10 accurately ripped (confidence 5) [276CD0CD] (AR v2)
All tracks accurately ripped
End of status report
==== Log checksum BE96CDB0E569859235765EE1E88D662DF39BE731BAC45210820D6CA6498EB8FC ====

CD2: Schattenwelten

Exact Audio Copy V1.0 beta 3 from 29. August 2011
EAC extraction logfile from 8. May 2018, 14:52
L'Âme Immortelle / Hinter dem Horizont CD2: Schattenwelten
Used drive : SlimtypeDVD A DS8A4S Adapter: 1 ID: 0
Read mode : SecureUtilize accurate stream : YesDefeat audio cache : YesMake use of C2 pointers : No
Read offset correction : 6Overread into Lead-In and Lead-Out : NoFill up missing offset samples with silence : YesDelete leading and trailing silent blocks : NoNull samples used in CRC calculations : YesUsed interface : Native Win32 interface for Win NT & 2000
Used output format : Internal WAV RoutinesSample format : 44.100 Hz; 16 Bit; Stereo
TOC of the extracted CD
Track | Start | Length | Start sector | End sector --------------------------------------------------------- 1 | 0:00.00 | 4:14.49 | 0 | 19098 2 | 4:14.49 | 4:43.54 | 19099 | 40377 3 | 8:58.28 | 5:53.03 | 40378 | 66855 4 | 14:51.31 | 4:58.04 | 66856 | 89209 5 | 19:49.35 | 6:35.18 | 89210 | 118852 6 | 26:24.53 | 4:23.22 | 118853 | 138599 7 | 30:48.00 | 4:18.73 | 138600 | 158022 8 | 35:06.73 | 3:09.28 | 158023 | 172225 9 | 38:16.26 | 3:57.55 | 172226 | 190055 10 | 42:14.06 | 5:27.19 | 190056 | 214599 11 | 47:41.25 | 4:51.42 | 214600 | 236466
Range status and errors
Selected range
Filename C:\Users\Nikolai\Documents\cdrips\L'Âme Immortelle - Hinter dem Horizont CD2- Schattenwelten.wav
Peak level 93.3 % Extraction speed 1.7 X Range quality 100.0 % Test CRC 20E86142 Copy CRC 20E86142 Copy OK
No errors occurred
AccurateRip summary
Track 1 accurately ripped (confidence 6) [E519EA28] (AR v2)Track 2 accurately ripped (confidence 6) [10BADC95] (AR v2)Track 3 accurately ripped (confidence 6) [50C36B6C] (AR v2)Track 4 accurately ripped (confidence 6) [FF1CE336] (AR v2)Track 5 accurately ripped (confidence 6) [64BC7C82] (AR v2)Track 6 accurately ripped (confidence 6) [EB0048E8] (AR v2)Track 7 accurately ripped (confidence 6) [354F8A57] (AR v2)Track 8 accurately ripped (confidence 6) [A2244539] (AR v2)Track 9 accurately ripped (confidence 6) [90C90471] (AR v2)Track 10 accurately ripped (confidence 6) [621069CD] (AR v2)Track 11 accurately ripped (confidence 6) [1EB5089C] (AR v2)
All tracks accurately ripped
End of status report
==== Log checksum 49C8B483BC972AFF7A46EC9EB49060A077465898A66268C062DF60420DB7EE11 ====

CD3: Linear Notes

Exact Audio Copy V1.0 beta 3 from 29. August 2011
EAC extraction logfile from 8. May 2018, 15:21
L'Âme Immortelle / Hinter dem Horizont CD3: linear notes
Used drive : SlimtypeDVD A DS8A4S Adapter: 1 ID: 0
Read mode : SecureUtilize accurate stream : YesDefeat audio cache : YesMake use of C2 pointers : No
Read offset correction : 6Overread into Lead-In and Lead-Out : NoFill up missing offset samples with silence : YesDelete leading and trailing silent blocks : NoNull samples used in CRC calculations : YesUsed interface : Native Win32 interface for Win NT & 2000
Used output format : Internal WAV RoutinesSample format : 44.100 Hz; 16 Bit; Stereo
TOC of the extracted CD
Track | Start | Length | Start sector | End sector --------------------------------------------------------- 1 | 0:00.00 | 3:00.60 | 0 | 13559 2 | 3:00.60 | 3:07.03 | 13560 | 27587 3 | 6:07.63 | 1:29.05 | 27588 | 34267 4 | 7:36.68 | 3:25.37 | 34268 | 49679 5 | 11:02.30 | 1:50.33 | 49680 | 57962 6 | 12:52.63 | 2:08.07 | 57963 | 67569 7 | 15:00.70 | 0:51.22 | 67570 | 71416 8 | 15:52.17 | 1:28.04 | 71417 | 78020 9 | 17:20.21 | 1:19.55 | 78021 | 84000 10 | 18:40.01 | 1:25.27 | 84001 | 90402 11 | 20:05.28 | 3:06.41 | 90403 | 104393
Range status and errors
Selected range
Filename C:\Users\Nikolai\Documents\cdrips\L'Âme Immortelle - Hinter dem Horizont CD3- linear notes.wav
Peak level 84.9 % Extraction speed 1.4 X Range quality 100.0 % Test CRC 05F4CAA8 Copy CRC 05F4CAA8 Copy OK
No errors occurred
AccurateRip summary
Track 1 accurately ripped (confidence 3) [141F61A6] (AR v2)Track 2 accurately ripped (confidence 3) [C411F4BB] (AR v2)Track 3 accurately ripped (confidence 3) [C77A32E7] (AR v2)Track 4 accurately ripped (confidence 3) [94D6FBC3] (AR v2)Track 5 accurately ripped (confidence 3) [4D497D7A] (AR v2)Track 6 accurately ripped (confidence 3) [111F5131] (AR v2)Track 7 accurately ripped (confidence 3) [F97AB74B] (AR v2)Track 8 accurately ripped (confidence 3) [64C78A99] (AR v2)Track 9 accurately ripped (confidence 3) [144BC1E4] (AR v2)Track 10 accurately ripped (confidence 3) [470504CC] (AR v2)Track 11 accurately ripped (confidence 3) [4E7F581F] (AR v2)
All tracks accurately ripped
End of status report
==== Log checksum D2F952BEE006B8C13D89F531CEC61F7C5F72FA7D63559F260C323F1F64911ED2 ====


[torrentc.info]_t_5560342.torrent
Торрент: Зарегистрирован ·  [ 2018-05-13 20:22 ] ·  4468cc5b1b35e303cc6ba4253956c868b5ce15a6

65 KB

Статус: проверено
Скачан: 0 раз
Размер: 815 MB
Оценка: 
(Голосов: 0)
Сказали спасибо: 0  Спасибо
Похожие темы
[Профиль]    [ЛС]
Показать сообщения:    
Ответить на тему

Текущее время: Сегодня 10:21

Часовой пояс: GMT + 7



Вы не можете начинать темы
Вы не можете отвечать на сообщения
Вы не можете редактировать свои сообщения
Вы не можете удалять свои сообщения
Вы не можете голосовать в опросах
Вы не можете прикреплять файлы к сообщениям
Вы можете скачивать файлы