Второй трагический Фантоцци / Il secondo tragico Fantozzi (Лучиано Салче / Luciano Salce) [1976, Италия, комедия, DVB] DVO (Кондор)

Ответить на тему
Статистика раздачи [Обновить пиров]
Размер:  1.85 GB   |    Зарегистрирован:  5 месяцев 4 дня   |    Скачан:  0 раз

Полного источника не было: Никогда

 
   
 
 
 
Автор Сообщение

torrentc.info

Создавать темы 13-Май-2018 10:59

[Цитировать]

Второй трагический Фантоцци / Il secondo tragico Fantozzi- Страна: Италия
Жанр: комедия
Год выхода: 1976
Продолжительность: 01:44:29-Перевод: Профессиональный (двухголосый закадровый) - Студия "Кондор" по заказу ВГТРК / Канал "Культура"
Субтитры: нет-Режиссер: Лучиано Салче / Luciano Salce
В ролях: Паоло Вилладжо, Анна Маццамауро, Джиджи Редер, Уго Болонья, Мауро Вестри, Плинио Фернандо, Антонино Фаа Ди Бруно, Ниэтта Зоччи, Паоло Паолони, Джузеппе Анатрелли...- | : -Описание: Его жена уехала к маме. А он решил устроить мальчишник: друзья, пиво, девушки, танцы. Через три часа пиво кончилось, девушки разделись. А жена вернулась за любимым зонтиком…-Семпл: http://sendfile.su/1418744-Тип релиза: DVB (Канал "Культура")
Формат файла: TS
Видео: 720x576 (16:9), 25.000 fps, AVC, ~2218 Kbps, 0.214 bits/pixel
Аудио: Русский, 48.0 KHz, MPEG-1 Audio layer 2, 2 ch, 192 Kbps

MediaInfo

GeneralID : 1 (0x1)Complete name : Il secondo tragico Fantozzi 1976 Kultura DVO Kondor.tsFormat : MPEG-TSFile size : 1.85 GiBDuration : 1 h 44 minOverall bit rate mode : VariableOverall bit rate : 2 537 kb/s
VideoID : 205 (0xCD)Menu ID : 1 (0x1)Format : AVCFormat/Info : Advanced Video CodecFormat profile : High@L3Format settings : CABAC / 4 Ref FramesFormat settings, CABAC : YesFormat settings, RefFrames : 4 framesFormat settings, picture structure : FrameCodec ID : 27Duration : 1 h 44 minBit rate : 2 218 kb/sWidth : 720 pixelsHeight : 576 pixelsDisplay aspect ratio : 16:9Frame rate : 25.000 FPSStandard : ComponentColor space : YUVChroma subsampling : 4:2:0Bit depth : 8 bitsScan type : InterlacedScan type, store method : Interleaved fieldsScan order : Top Field FirstBits/(Pixel*Frame) : 0.214Stream size : 1.62 GiB (87%)Color range : LimitedColor primaries : BT.601 PALTransfer characteristics : BT.470 System B/GMatrix coefficients : BT.470 System B/G
AudioID : 305 (0x131)Menu ID : 1 (0x1)Format : MPEG AudioFormat version : Version 1Format profile : Layer 2Codec ID : 3Duration : 1 h 44 minBit rate mode : ConstantBit rate : 192 kb/sChannel(s) : 2 channelsSampling rate : 48.0 kHzFrame rate : 41.667 FPS (1152 SPF)Compression mode : LossyDelay relative to video : -40 msStream size : 144 MiB (8%)Language : Russian
TextID : 505 (0x1F9)-888Menu ID : 1 (0x1)Format : Teletext SubtitleLanguage : RussianLanguage, more info : For hearing impaired people

Скриншоты

Источник: Torrentc с DVD

-DVD- -Канал "Культура"- -


[torrentc.info]_t_5560783.torrent
Торрент: Зарегистрирован ·  [ 2018-05-13 10:59 ] ·  c552a87e7ab26a4734ad7d52156b204eda317b62

19 KB

Статус: проверено
Скачан: 0 раз
Размер: 1.85 GB
Оценка: 
(Голосов: 0)
Сказали спасибо: 0  Спасибо
Похожие темы
[Профиль]    [ЛС]
Показать сообщения:    
Ответить на тему

Текущее время: Сегодня 01:19

Часовой пояс: GMT + 7



Вы не можете начинать темы
Вы не можете отвечать на сообщения
Вы не можете редактировать свои сообщения
Вы не можете удалять свои сообщения
Вы не можете голосовать в опросах
Вы не можете прикреплять файлы к сообщениям
Вы можете скачивать файлы