(Progressive Pop, Progressive Rock) [CD] Yockie & Chrisye - Jurang Pemisah - 1977 (2004), FLAC (tracks+.cue), lossless

Ответить на тему
Статистика раздачи [Обновить пиров]
Размер:  259 MB   |    Зарегистрирован:  1 месяц 10 дней   |    Скачан:  0 раз

Полного источника не было: Никогда

 
   
 
 
 
Автор Сообщение

torrentc.info

Создавать темы 13-Май-2018 01:20

[Цитировать]

--Yockie & Chrisye - Jurang Pemisah - 1977 (2004)-- Жанр: Progressive Pop, Progressive Rock
Носитель: CD (Album, Split, Remastered)
Страна-производитель диска (релиза): Indonesia
Год издания оригинала: 1977 Cassette, PT. Pramaqua
Год переиздания: 2004
Издатель (лейбл): PT. Pramaqua
Номер по каталогу: APC AQM22-2
Страна исполнителя (группы) : Indonesia
Дата / место записи: at Irama Mas
Аудио кодек: FLAC (*.flac)
Тип рипа: (tracks + .cue)
Битрейт аудио: lossless
Наличие сканов в содержимом раздачи: Booklet & Back
Продолжительность: 39:17
Источник (релизер): REDacted
Трэклист:
1. Chrisye - Jeritan Seberang (Shriek from the Other Side) - 3:46
2. Chrisye - Jurang Pemisah (Dividing Canyon) - 9:06
3. Chrisye - Sirna (Disappeared") (4:31
4. Chrisye - Mesin Kota (Machines in the City) - 3:58
5. Chrisye - Putri Malam - 5:00
6. Chrisye - Dendam (Revenge) - 2:32
7. Yockie - Gerutu Menggerutu (Grumbling Roughly) - 2:54
8. Yockie - Harapan (Hope) - 3:16
9. Chrisye - Dia (Her) - 4:130

Лог создания рипа

Exact Audio Copy V1.0 beta 3 from 29. August 2011
EAC extraction logfile from 26. July 2012, 22:38
Yockie & Chrisye / Jurang Pemisah
Used drive : ATAPI iHAS324 Y Adapter: 4 ID: 0
Read mode : SecureUtilize accurate stream : YesDefeat audio cache : YesMake use of C2 pointers : No
Read offset correction : 48Overread into Lead-In and Lead-Out : NoFill up missing offset samples with silence : YesDelete leading and trailing silent blocks : NoNull samples used in CRC calculations : YesUsed interface : Native Win32 interface for Win NT & 2000Gap handling : Appended to previous track
Used output format : User Defined EncoderSelected bitrate : 896 kBit/sQuality : HighAdd ID3 tag : NoCommand line compressor : C:\Program Files\Exact Audio Copy\flac.exeAdditional command line options : -8 -V -T "ARTIST=%artist%" -T "TITLE=%title%" -T "ALBUM=%albumtitle%" -T "DATE=%year%" -T "TRACKNUMBER=%tracknr%" -T "GENRE=%genre%" -T "PERFORMER=%albuminterpret%" -T "COMPOSER=%composer%" %haslyrics%--tag-from-file=LYRICS="%lyricsfile%"%haslyrics% -T "ALBUMARTIST=%albumartist%" -T "DISCNUMBER=%cdnumber%" -T "TOTALDISCS=%totalcds%" -T "TOTALTRACKS=%numtracks%" -T "COMMENT=%comment%" %source% -o %dest%
TOC of the extracted CD
Track | Start | Length | Start sector | End sector --------------------------------------------------------- 1 | 0:00.00 | 3:46.00 | 0 | 16949 2 | 3:46.00 | 9:05.52 | 16950 | 57876 3 | 12:51.52 | 4:31.20 | 57877 | 78221 4 | 17:22.72 | 3:58.08 | 78222 | 96079 5 | 21:21.05 | 5:00.27 | 96080 | 118606 6 | 26:21.32 | 2:31.58 | 118607 | 129989 7 | 28:53.15 | 2:54.12 | 129990 | 143051 8 | 31:47.27 | 3:16.13 | 143052 | 157764 9 | 35:03.40 | 4:13.35 | 157765 | 176774
Track 1
Filename C:\EAC\01 - Jeritan Seberang.wav
Pre-gap length 0:00:02.00
Peak level 97.7 % Extraction speed 2.3 X Track quality 100.0 % Test CRC A0D58A1F Copy CRC A0D58A1F Track not present in AccurateRip database Copy OK
Track 2
Filename C:\EAC\02 - Jurang Pemisah.wav
Pre-gap length 0:00:01.23
Peak level 96.8 % Extraction speed 3.0 X Track quality 100.0 % Test CRC 05976A3B Copy CRC 05976A3B Track not present in AccurateRip database Copy OK
Track 3
Filename C:\EAC\03 - Sirna.wav
Pre-gap length 0:00:01.22
Peak level 100.0 % Extraction speed 2.9 X Track quality 99.9 % Test CRC A06C72DF Copy CRC A06C72DF Track not present in AccurateRip database Copy OK
Track 4
Filename C:\EAC\04 - Mesin Kota.wav
Pre-gap length 0:00:01.22
Peak level 99.6 % Extraction speed 3.4 X Track quality 100.0 % Test CRC BC9B4A2A Copy CRC BC9B4A2A Track not present in AccurateRip database Copy OK
Track 5
Filename C:\EAC\05 - Putri Malam.wav
Pre-gap length 0:00:01.23
Peak level 100.0 % Extraction speed 3.7 X Track quality 100.0 % Test CRC 97170CDA Copy CRC 97170CDA Track not present in AccurateRip database Copy OK
Track 6
Filename C:\EAC\06 - Dendam.wav
Pre-gap length 0:00:01.22
Peak level 100.0 % Extraction speed 3.5 X Track quality 100.0 % Test CRC D04087CF Copy CRC D04087CF Track not present in AccurateRip database Copy OK
Track 7
Filename C:\EAC\07 - Gerutu Menggerutu.wav
Pre-gap length 0:00:01.23
Peak level 100.0 % Extraction speed 3.6 X Track quality 100.0 % Test CRC 01210E95 Copy CRC 01210E95 Track not present in AccurateRip database Copy OK
Track 8
Filename C:\EAC\08 - Harapan.wav
Pre-gap length 0:00:01.22
Peak level 98.5 % Extraction speed 3.3 X Track quality 99.9 % Test CRC 0ECA8F89 Copy CRC 0ECA8F89 Track not present in AccurateRip database Copy OK
Track 9
Filename C:\EAC\09 - Dia.wav
Pre-gap length 0:00:01.23
Peak level 100.0 % Extraction speed 4.2 X Track quality 100.0 % Test CRC 9FF31610 Copy CRC 9FF31610 Track not present in AccurateRip database Copy OK
None of the tracks are present in the AccurateRip database
No errors occurred
End of status report
==== Log checksum 9221F113D1EAEAB7BFF998CA16D38E6B7AE2A15E3B9FE981B537F24430429C14 ====
------------------------------------------------------------
Exact Audio Copy V1.0 beta 3 from 29. August 2011
EAC extraction logfile from 26. July 2012, 22:39
Yockie & Chrisye / Jurang Pemisah
Used drive : ATAPI iHAS324 Y Adapter: 4 ID: 0
Read mode : SecureUtilize accurate stream : YesDefeat audio cache : YesMake use of C2 pointers : No
Read offset correction : 48Overread into Lead-In and Lead-Out : NoFill up missing offset samples with silence : YesDelete leading and trailing silent blocks : NoNull samples used in CRC calculations : YesUsed interface : Native Win32 interface for Win NT & 2000Gap handling : Appended to previous track
Used output format : User Defined EncoderSelected bitrate : 896 kBit/sQuality : HighAdd ID3 tag : NoCommand line compressor : C:\Program Files\Exact Audio Copy\flac.exeAdditional command line options : -8 -V -T "ARTIST=%artist%" -T "TITLE=%title%" -T "ALBUM=%albumtitle%" -T "DATE=%year%" -T "TRACKNUMBER=%tracknr%" -T "GENRE=%genre%" -T "PERFORMER=%albuminterpret%" -T "COMPOSER=%composer%" %haslyrics%--tag-from-file=LYRICS="%lyricsfile%"%haslyrics% -T "ALBUMARTIST=%albumartist%" -T "DISCNUMBER=%cdnumber%" -T "TOTALDISCS=%totalcds%" -T "TOTALTRACKS=%numtracks%" -T "COMMENT=%comment%" %source% -o %dest%
TOC of the extracted CD
Track | Start | Length | Start sector | End sector --------------------------------------------------------- 1 | 0:00.00 | 3:46.00 | 0 | 16949 2 | 3:46.00 | 9:05.52 | 16950 | 57876 3 | 12:51.52 | 4:31.20 | 57877 | 78221 4 | 17:22.72 | 3:58.08 | 78222 | 96079 5 | 21:21.05 | 5:00.27 | 96080 | 118606 6 | 26:21.32 | 2:31.58 | 118607 | 129989 7 | 28:53.15 | 2:54.12 | 129990 | 143051 8 | 31:47.27 | 3:16.13 | 143052 | 157764 9 | 35:03.40 | 4:13.35 | 157765 | 176774
Track 1
Filename C:\EAC\01 - Jeritan Seberang.wav
Pre-gap length 0:00:02.00
Peak level 97.7 % Extraction speed 2.3 X Track quality 100.0 % Test CRC A0D58A1F Copy CRC A0D58A1F Track not present in AccurateRip database Copy OK
Track 2
Filename C:\EAC\02 - Jurang Pemisah.wav
Pre-gap length 0:00:01.23
Peak level 96.8 % Extraction speed 3.0 X Track quality 100.0 % Test CRC 05976A3B Copy CRC 05976A3B Track not present in AccurateRip database Copy OK
Track 3
Filename C:\EAC\03 - Sirna.wav
Pre-gap length 0:00:01.22
Peak level 100.0 % Extraction speed 2.9 X Track quality 99.9 % Test CRC A06C72DF Copy CRC A06C72DF Track not present in AccurateRip database Copy OK
Track 4
Filename C:\EAC\04 - Mesin Kota.wav
Pre-gap length 0:00:01.22
Peak level 99.6 % Extraction speed 3.4 X Track quality 100.0 % Test CRC BC9B4A2A Copy CRC BC9B4A2A Track not present in AccurateRip database Copy OK
Track 5
Filename C:\EAC\05 - Putri Malam.wav
Pre-gap length 0:00:01.23
Peak level 100.0 % Extraction speed 3.7 X Track quality 100.0 % Test CRC 97170CDA Copy CRC 97170CDA Track not present in AccurateRip database Copy OK
Track 6
Filename C:\EAC\06 - Dendam.wav
Pre-gap length 0:00:01.22
Peak level 100.0 % Extraction speed 3.5 X Track quality 100.0 % Test CRC D04087CF Copy CRC D04087CF Track not present in AccurateRip database Copy OK
Track 7
Filename C:\EAC\07 - Gerutu Menggerutu.wav
Pre-gap length 0:00:01.23
Peak level 100.0 % Extraction speed 3.6 X Track quality 100.0 % Test CRC 01210E95 Copy CRC 01210E95 Track not present in AccurateRip database Copy OK
Track 8
Filename C:\EAC\08 - Harapan.wav
Pre-gap length 0:00:01.22
Peak level 98.5 % Extraction speed 3.3 X Track quality 99.9 % Test CRC 0ECA8F89 Copy CRC 0ECA8F89 Track not present in AccurateRip database Copy OK
Track 9
Filename C:\EAC\09 - Dia.wav
Pre-gap length 0:00:01.23
Peak level 100.0 % Extraction speed 4.2 X Track quality 100.0 % Test CRC 9FF31610 Copy CRC 9FF31610 Track not present in AccurateRip database Copy OK
None of the tracks are present in the AccurateRip database
No errors occurred
End of status report
==== Log checksum 074C67DC1BFB64BD449B28ADF316E97AA2E6A7FEE67529EE21E33A86DE285550 ====

Содержание индексной карты (.CUE):

REM GENRE PopREM DATE 1977REM DISCID 72093509REM COMMENT "ExactAudioCopy v1.0b3"PERFORMER "Yockie & Chrisye"TITLE "Jurang Pemisah"FILE "01 - Jeritan Seberang.wav" WAVE TRACK 01 AUDIO TITLE "Jeritan Seberang" PERFORMER "Yockie & Chrisye" INDEX 01 00:00:00 TRACK 02 AUDIO TITLE "Jurang Pemisah" PERFORMER "Yockie & Chrisye" INDEX 00 03:44:52FILE "02 - Jurang Pemisah.wav" WAVE INDEX 01 00:00:00 TRACK 03 AUDIO TITLE "Sirna" PERFORMER "Yockie & Chrisye" INDEX 00 09:04:30FILE "03 - Sirna.wav" WAVE INDEX 01 00:00:00 TRACK 04 AUDIO TITLE "Mesin Kota" PERFORMER "Yockie & Chrisye" INDEX 00 04:29:73FILE "04 - Mesin Kota.wav" WAVE INDEX 01 00:00:00 TRACK 05 AUDIO TITLE "Putri Malam" PERFORMER "Yockie & Chrisye" INDEX 00 03:56:60FILE "05 - Putri Malam.wav" WAVE INDEX 01 00:00:00 TRACK 06 AUDIO TITLE "Dendam" PERFORMER "Yockie & Chrisye" INDEX 00 04:59:05FILE "06 - Dendam.wav" WAVE INDEX 01 00:00:00 TRACK 07 AUDIO TITLE "Gerutu Menggerutu" PERFORMER "Yockie & Chrisye" INDEX 00 02:30:35FILE "07 - Gerutu Menggerutu.wav" WAVE INDEX 01 00:00:00 TRACK 08 AUDIO TITLE "Harapan" PERFORMER "Yockie & Chrisye" INDEX 00 02:52:65FILE "08 - Harapan.wav" WAVE INDEX 01 00:00:00 TRACK 09 AUDIO TITLE "Dia" PERFORMER "Yockie & Chrisye" INDEX 00 03:14:65FILE "09 - Dia.wav" WAVE INDEX 01 00:00:00

Лог проверки качества

-----------------------
DON'T MODIFY THIS FILE
-----------------------
PERFORMER: auCDtect Task Manager, ver. 1.6.0 RC1 build 1.6.0.1Copyright (c) 2008-2010 y-soft. All rights reservedhttp://y-soft.org
ANALYZER: auCDtect: CD records authenticity detector, version 0.8.2Copyright (c) 2004 Oleg Berngardt. All rights reserved.Copyright (c) 2004 Alexander Djourik. All rights reserved.
FILE: 09 - Dia.flac Size: 31325245 Hash: 472DD4E197B642DD73474CE0F7A85D34 Accuracy: -m0 Conclusion: CDDA 100% Signature: 26AAE576E09F8F341BD2DD3A2705F4C5948A5AD3FILE: 08 - Harapan.flac Size: 20789678 Hash: 1B1CA6AF4D491B30D16E5C18AC8D62ED Accuracy: -m0 Conclusion: CDDA 100% Signature: B6D36A1001519B17E26F4E3D55CFC5325B3F2377FILE: 07 - Gerutu Menggerutu.flac Size: 20884884 Hash: C6143399DF6A44AAFD918A50221C922B Accuracy: -m0 Conclusion: CDDA 99% Signature: AC885A0C0E2B8886B632B4D32668BE3145B12AC0FILE: 06 - Dendam.flac Size: 17049358 Hash: FA0FF48DE46AFCB8DEF44B37F3A05680 Accuracy: -m0 Conclusion: CDDA 100% Signature: 523E352911F726ED3958D3F49740929FFCC89D74FILE: 05 - Putri Malam.flac Size: 32686982 Hash: F7CEF61EF8BCBF6E9602E779700BAEC9 Accuracy: -m0 Conclusion: CDDA 100% Signature: 0CF073C3511C30488A2205F06535CD56CB90357DFILE: 04 - Mesin Kota.flac Size: 29754024 Hash: 9EE3F31F8B870841BEE58E9C6884333B Accuracy: -m0 Conclusion: CDDA 99% Signature: 67FC134E0CC58F95EBFA797D61BC0E9810E7E796FILE: 03 - Sirna.flac Size: 30373026 Hash: 031691670AC9A5E4E6963F88D8B3D310 Accuracy: -m0 Conclusion: CDDA 100% Signature: 140E184D2DB16A65CEC41C66881FDC69D68B358FFILE: 02 - Jurang Pemisah.flac Size: 61973277 Hash: 9A7FD96AAB86B0182D16A83BC116B31A Accuracy: -m0 Conclusion: CDDA 100% Signature: EBDC9FD7F81756E8E620A33D315EFD2AC36549FAFILE: 01 - Jeritan Seberang.flac Size: 24214381 Hash: 547DB6D4C7C9DD99690069CD24B5384B Accuracy: -m0 Conclusion: CDDA 100% Signature: 42DCDA17D0166E635BC1F4D98CEE63AEFDF4F08C

Лог CUETools

[CUETools log; Date: 5/11/2018 8:37:54 PM; Version: 2.1.5][CTDB TOCID: o_lBpFhoZzHmFU8PLX963QkV6H8-] found.Track | CTDB Status 1 | (2/2) Accurately ripped 2 | (2/2) Accurately ripped 3 | (2/2) Accurately ripped 4 | (2/2) Accurately ripped 5 | (2/2) Accurately ripped 6 | (2/2) Accurately ripped 7 | (2/2) Accurately ripped 8 | (2/2) Accurately ripped 9 | (2/2) Accurately ripped[AccurateRip ID: 000ee1d6-006a1dcb-72093509] found.Track [ CRC | V2 ] Status 01 [e402dd4a|658eeab7] (0+0/1) No match 02 [45093a14|1133688f] (0+0/1) No match 03 [f8f4905b|2e409228] (0+0/1) No match 04 [e4bca2c8|8c13e27f] (0+0/1) No match 05 [409d9b12|3edad618] (0+0/1) No match 06 [43d1a2f6|68ccdff5] (0+0/1) No match 07 [6fefb28b|02684744] (0+0/1) No match 08 [5173ef59|4e646d73] (0+0/1) No match 09 [90c78da1|4512cea3] (0+0/1) No matchOffsetted by -6: 01 [23070414] (0/1) No match (V2 was not tested) 02 [53c85d36] (0/1) No match (V2 was not tested) 03 [88c3365f] (0/1) No match (V2 was not tested) 04 [64ec575c] (0/1) No match (V2 was not tested) 05 [b7851d72] (0/1) No match (V2 was not tested) 06 [aca19648] (0/1) No match (V2 was not tested) 07 [a122516b] (0/1) No match (V2 was not tested) 08 [90ee9009] (0/1) No match (V2 was not tested) 09 [e6b1a48b] (0/1) No match (V2 was not tested)
Track Peak [ CRC32 ] [W/O NULL] [ LOG ] -- 100.0 [F7B18202] [7AFD02F6] 01 97.7 [A0D58A1F] [ADFBBF9D] CRC32 02 96.8 [05976A3B] [ACAB6DB5] CRC32 03 100.0 [A06C72DF] [6A78E229] CRC32 04 99.6 [BC9B4A2A] [0ACE64ED] CRC32 05 100.0 [97170CDA] [C648EE3B] CRC32 06 100.0 [D04087CF] [E2996BA0] CRC32 07 100.0 [01210E95] [0EB6329D] CRC32 08 98.5 [0ECA8F89] [AB9176C0] CRC32 09 100.0 [9FF31610] [5467B393] CRC32

Замер динамического диапазона

foobar2000 1.3.10 / Замер динамического диапазона (DR) 1.1.1Дата отчёта: 2018-05-12 09:29:09
--------------------------------------------------------------------------------Анализ: Yockie & Chrisye / Jurang Pemisah--------------------------------------------------------------------------------
DR Пики RMS Продолжительность трека--------------------------------------------------------------------------------DR10 -0.20 дБ -12.27 дБ 3:46 01-Jeritan SeberangDR8 -0.28 дБ -11.06 дБ 9:06 02-Jurang PemisahDR9 0.00 дБ -11.51 дБ 4:31 03-SirnaDR10 -0.03 дБ -11.31 дБ 3:58 04-Mesin KotaDR12 0.00 дБ -14.46 дБ 5:00 05-Putri MalamDR10 0.00 дБ -12.71 дБ 2:32 06-DendamDR9 0.00 дБ -11.68 дБ 2:54 07-Gerutu MenggerutuDR11 -0.13 дБ -12.53 дБ 3:16 08-HarapanDR10 0.00 дБ -12.15 дБ 4:13 09-Dia--------------------------------------------------------------------------------
Количество треков: 9Реальные значения DR: DR10
Частота: 44100 ГцКаналов: 2Разрядность: 16Битрейт: 988 кбит/сКодек: FLAC================================================================================
-

Back

Состав

Arranged By – Yockie Suryoprayogo
Vocals - Chrisye
Producer – PT. Pramaqua
-


[torrentc.info]_t_5560713.torrent
Торрент: Зарегистрирован ·  [ 2018-05-13 01:20 ] ·  5bd99a28f15bff46bedad8163697a110cf669851

11 KB

Статус: проверено
Скачан: 0 раз
Размер: 259 MB
Оценка: 
(Голосов: 0)
Сказали спасибо: 0  Спасибо
Похожие темы
[Профиль]    [ЛС]
Показать сообщения:    
Ответить на тему

Текущее время: Сегодня 00:39

Часовой пояс: GMT + 7



Вы не можете начинать темы
Вы не можете отвечать на сообщения
Вы не можете редактировать свои сообщения
Вы не можете удалять свои сообщения
Вы не можете голосовать в опросах
Вы не можете прикреплять файлы к сообщениям
Вы можете скачивать файлы