(Rock, Progressive Rock, Art Rock) [CD] Chris Squire - Fish Out Of Water - 1975 (2CD + 2DVD + LP + 2 x 7" Box Set Esoteric Recordings 2018 EU), FLAC (image+.cue), lossless

Ответить на тему
Статистика раздачи [Обновить пиров]
Размер:  2.11 GB   |    Зарегистрирован:  5 месяцев 5 дней   |    Скачан:  0 раз

Полного источника не было: Никогда

 
   
 
 
 
Автор Сообщение

torrentc.info

Создавать темы 13-Май-2018 01:20

[Цитировать]

Chris Squire - Fish Out Of Water
Жанр: Rock, Progressive Rock, Art Rock
Страна-производитель диска: EU
Год издания диска: 2018
Издатель (лейбл): Esoteric Recordings / Cherry Red Records
Номер по каталогу: PECLEC42620
Страна: UK
Аудио кодек: FLAC (*.flac)
Тип рипа: image+.cue
Битрейт аудио: lossless
Продолжительность: 01:40:39
Источник (релизер): allekkss48
Наличие сканов в содержимом раздачи: да
Треклист:

Disc One - The New Stereo Mix (00:42:36)

01. Hold Out Your Hand
02. You By My Side
03. Silently Falling
04. Lucky Seven
05. Safe (Canon Song)

Лог создания рипа

Exact Audio Copy V1.3 from 2. September 2016
EAC extraction logfile from 11. May 2018, 20:30
Chris Squire / Fish Out Of Water CD1
Used drive : PLEXTOR BD-R PX-B950SA Adapter: 1 ID: 1
Read mode : SecureUtilize accurate stream : YesDefeat audio cache : YesMake use of C2 pointers : No
Read offset correction : 6Overread into Lead-In and Lead-Out : NoFill up missing offset samples with silence : YesDelete leading and trailing silent blocks : NoNull samples used in CRC calculations : YesUsed interface : Native Win32 interface for Win NT & 2000
Used output format : Internal WAV RoutinesSample format : 44.100 Hz; 16 Bit; Stereo
TOC of the extracted CD
Track | Start | Length | Start sector | End sector --------------------------------------------------------- 1 | 0:00.00 | 4:15.15 | 0 | 19139 2 | 4:15.15 | 5:01.49 | 19140 | 41763 3 | 9:16.64 | 11:21.29 | 41764 | 92867 4 | 20:38.18 | 6:56.26 | 92868 | 124093 5 | 27:34.44 | 15:01.66 | 124094 | 191734
Range status and errors
Selected range
Filename C:\Users\Alex\Desktop\Lossless Galaxy ALLexxess\Chris Squire\1975 Fish Out Of Water (7-Disc Box Set Esoteric Records 2018)\CD1\Chris Squire - Fish Out Of Water CD1.wav
Peak level 98.8 % Extraction speed 6.8 X Range quality 100.0 % Test CRC C5286A4F Copy CRC C5286A4F Copy OK
No errors occurred
AccurateRip summary
Track 1 not present in databaseTrack 2 not present in databaseTrack 3 not present in databaseTrack 4 not present in databaseTrack 5 not present in database
None of the tracks are present in the AccurateRip database
End of status report
---- CUETools DB Plugin V2.1.6
[CTDB TOCID: LpSPsCL24Uw6LiGBpyL6X__klgM-] foundSubmit result: LpSPsCL24Uw6LiGBpyL6X__klgM- has been confirmedTrack | CTDB Status 1 | (18/18) Accurately ripped 2 | (18/18) Accurately ripped 3 | (18/18) Accurately ripped 4 | (18/18) Accurately ripped 5 | (18/18) Accurately ripped
==== Log checksum AFD9D97D9B8F7C23138B59B7C03E5716A97E02626DC1A2252F2112F34EB99734 ====

Содержание индексной карты (.CUE)

REM GENRE "Progressive Rock"REM DATE 1975REM DISCID 3B09FC05REM COMMENT "ExactAudioCopy v1.3"PERFORMER "Chris Squire"TITLE "Fish Out Of Water CD1"REM COMPOSER "Chris Squire"FILE "Chris Squire - Fish Out Of Water CD1.flac" WAVE TRACK 01 AUDIO TITLE "Hold Out Your Hand" PERFORMER "Chris Squire" REM COMPOSER "Chris Squire" INDEX 01 00:00:00 TRACK 02 AUDIO TITLE "You By My Side" PERFORMER "Chris Squire" REM COMPOSER "Chris Squire" INDEX 01 04:15:15 TRACK 03 AUDIO TITLE "Silently Falling" PERFORMER "Chris Squire" REM COMPOSER "Chris Squire" INDEX 01 09:16:64 TRACK 04 AUDIO TITLE "Lucky Seven" PERFORMER "Chris Squire" REM COMPOSER "Chris Squire" INDEX 01 20:38:18 TRACK 05 AUDIO TITLE "Safe (Canon Song)" PERFORMER "Chris Squire" REM COMPOSER "Chris Squire" INDEX 01 27:34:44

Лог проверки качества

-----------------------
DON'T MODIFY THIS FILE
-----------------------
PERFORMER: auCDtect Task Manager, ver. 1.6.0 RC1 build 1.6.0.1Copyright (c) 2008-2010 y-soft. All rights reservedhttp://y-soft.org
ANALYZER: auCDtect: CD records authenticity detector, version 0.8.2Copyright (c) 2004 Oleg Berngardt. All rights reserved.Copyright (c) 2004 Alexander Djourik. All rights reserved.
FILE: Chris Squire - Fish Out Of Water CD1.wav Size: 450960764 Hash: 366A32376FB04357D681988A4FC34A1A Accuracy: -m8 Conclusion: CDDA 100% Signature: 373F0191C4DECB3B32E8E5021800FCE4C36E3207FILE: Chris Squire - Fish Out Of Water CD1.flac Size: 254440217 Hash: 366A32376FB04357D681988A4FC34A1A Accuracy: -m8 Conclusion: CDDA 100% Signature: 20176264782313B0A375D871D686A675EE76FFEB

Disc Two - The Original Stereo Mix Remastered (00:58:02)

01. Hold Out Your Hand
02. You By My Side
03. Silently Falling
04. Lucky Seven
05. Safe (Canon Song)
Bonus Tracks:
A & B-Sides Of Single / Released In November 1975
06. Lucky Seven (Single Mix)
07. Silently Falling (Single Version)
Chris Squire & Alan White:
A & B-Sides Of Single / Released In October 1981
08. Run With The Fox
09. Return Of The Fox

Лог создания рипа

Exact Audio Copy V1.3 from 2. September 2016
EAC extraction logfile from 11. May 2018, 19:54
Chris Squire / Fish Out Of Water CD2
Used drive : PLEXTOR BD-R PX-B950SA Adapter: 1 ID: 1
Read mode : SecureUtilize accurate stream : YesDefeat audio cache : YesMake use of C2 pointers : No
Read offset correction : 6Overread into Lead-In and Lead-Out : NoFill up missing offset samples with silence : YesDelete leading and trailing silent blocks : NoNull samples used in CRC calculations : YesUsed interface : Native Win32 interface for Win NT & 2000
Used output format : Internal WAV RoutinesSample format : 44.100 Hz; 16 Bit; Stereo
TOC of the extracted CD
Track | Start | Length | Start sector | End sector --------------------------------------------------------- 1 | 0:00.00 | 4:16.17 | 0 | 19216 2 | 4:16.17 | 5:02.27 | 19217 | 41893 3 | 9:18.44 | 11:57.08 | 41894 | 95676 4 | 21:15.52 | 6:56.52 | 95677 | 126928 5 | 28:12.29 | 15:05.66 | 126929 | 194869 6 | 43:18.20 | 3:29.66 | 194870 | 210610 7 | 46:48.11 | 2:59.44 | 210611 | 224079 8 | 49:47.55 | 4:11.70 | 224080 | 242974 9 | 53:59.50 | 4:02.38 | 242975 | 261162
Range status and errors
Selected range
Filename C:\Users\Alex\Desktop\Lossless Galaxy ALLexxess\Chris Squire\1975 Fish Out Of Water (7-Disc Box Set Esoteric Records 2018)\CD2\Chris Squire - Fish Out Of Water CD2.wav
Peak level 98.8 % Extraction speed 7.4 X Range quality 100.0 % Test CRC 7F7FFE36 Copy CRC 7F7FFE36 Copy OK
No errors occurred
AccurateRip summary
Track 1 not present in databaseTrack 2 not present in databaseTrack 3 not present in databaseTrack 4 not present in databaseTrack 5 not present in databaseTrack 6 not present in databaseTrack 7 not present in databaseTrack 8 not present in databaseTrack 9 not present in database
None of the tracks are present in the AccurateRip database
End of status report
---- CUETools DB Plugin V2.1.6
[CTDB TOCID: 9vNlYO6_KnUTi81ovP87DWovICQ-] foundSubmit result: 9vNlYO6_KnUTi81ovP87DWovICQ- has been confirmedTrack | CTDB Status 1 | (17/17) Accurately ripped 2 | (17/17) Accurately ripped 3 | (17/17) Accurately ripped 4 | (17/17) Accurately ripped 5 | (17/17) Accurately ripped 6 | (17/17) Accurately ripped 7 | (17/17) Accurately ripped 8 | (17/17) Accurately ripped 9 | (17/17) Accurately ripped
==== Log checksum 25F3E8B04747A83528FF4DF4B735A1484D5E3E2765E968CB458C2B4681034C75 ====

Содержание индексной карты (.CUE)

REM GENRE "Progressive Rock"REM DATE 1975REM DISCID 7A0D9A09REM COMMENT "ExactAudioCopy v1.3"PERFORMER "Chris Squire"TITLE "Fish Out Of Water CD2"REM COMPOSER "Chris Squire"FILE "Chris Squire - Fish Out Of Water CD2.flac" WAVE TRACK 01 AUDIO TITLE "Hold Out Your Hand" PERFORMER "Chris Squire" REM COMPOSER "Chris Squire" INDEX 01 00:00:00 TRACK 02 AUDIO TITLE "You By My Side" PERFORMER "Chris Squire" REM COMPOSER "Chris Squire" INDEX 01 04:16:17 TRACK 03 AUDIO TITLE "Silently Falling" PERFORMER "Chris Squire" REM COMPOSER "Chris Squire" INDEX 01 09:18:44 TRACK 04 AUDIO TITLE "Lucky Seven" PERFORMER "Chris Squire" REM COMPOSER "Chris Squire" INDEX 00 21:14:43 INDEX 01 21:15:52 TRACK 05 AUDIO TITLE "Safe (Canon Song)" PERFORMER "Chris Squire" REM COMPOSER "Chris Squire" INDEX 01 28:12:29 TRACK 06 AUDIO TITLE "Lucky Seven (Single Mix)" PERFORMER "Chris Squire" REM COMPOSER "Chris Squire" INDEX 00 43:14:11 INDEX 01 43:18:20 TRACK 07 AUDIO TITLE "Silently Falling (Single Version)" PERFORMER "Chris Squire" REM COMPOSER "Chris Squire" INDEX 00 46:46:41 INDEX 01 46:48:11 TRACK 08 AUDIO TITLE "Run With The Fox (With Alan White)" PERFORMER "Chris Squire" REM COMPOSER "Chris Squire" INDEX 00 49:46:71 INDEX 01 49:47:55 TRACK 09 AUDIO TITLE "Return Of The Fox (With Alan White)" PERFORMER "Chris Squire" REM COMPOSER "Chris Squire" INDEX 00 53:58:05 INDEX 01 53:59:50

Лог проверки качества

-----------------------
DON'T MODIFY THIS FILE
-----------------------
PERFORMER: auCDtect Task Manager, ver. 1.6.0 RC1 build 1.6.0.1Copyright (c) 2008-2010 y-soft. All rights reservedhttp://y-soft.org
ANALYZER: auCDtect: CD records authenticity detector, version 0.8.2Copyright (c) 2004 Oleg Berngardt. All rights reserved.Copyright (c) 2004 Alexander Djourik. All rights reserved.
FILE: Chris Squire - Fish Out Of Water CD2.wav Size: 614255420 Hash: 30668B7CB05A36B8A30FB94BCE792CBF Accuracy: -m8 Conclusion: CDDA 100% Signature: A0C40A7F40596F3A821D21303390761329AA0968FILE: Chris Squire - Fish Out Of Water CD2.flac Size: 354417364 Hash: 30668B7CB05A36B8A30FB94BCE792CBF Accuracy: -m8 Conclusion: CDDA 100% Signature: A951752DAAA9658147278EE007052BE58C59B043
Доп. информация

Об издании


Performer:
Chris Squire
Box / Album:
1975 Fish Out Of Water
(2CD + 2DVD + LP + 2 x 7" Box Set Esoteric Recordings 2018)
Info:
Esoteric Recordings / Cherry Red Records
CD / DVD (NTSC) / Vinyl / Remastered
New stereo mix, original multi-track master tapes by Jakko Jakszyk
New re-master of the original 1975 mix by Paschal Byrne
Limited Edition Super Deluxe Box
Catalog Box: PECLEC42620
Catalog Discs: PECLEC42620
Made in EU
Dynamic Range: 11 / 10
Released Year: 1975/2018
https://www.discogs.com/Chris-Squire-Fish-Out-Of-Water-Deluxe-Edition/release/11861590


[torrentc.info]_t_5560932.torrent
Торрент: Зарегистрирован ·  [ 2018-05-13 01:20 ] ·  a781b4eacb0efb9c0908c228b56147541d7394

16 KB

Статус: проверено
Скачан: 0 раз
Размер: 2.11 GB
Оценка: 
(Голосов: 0)
Сказали спасибо: 0  Спасибо
Похожие темы
[Профиль]    [ЛС]
Показать сообщения:    
Ответить на тему

Текущее время: Сегодня 23:07

Часовой пояс: GMT + 7



Вы не можете начинать темы
Вы не можете отвечать на сообщения
Вы не можете редактировать свои сообщения
Вы не можете удалять свои сообщения
Вы не можете голосовать в опросах
Вы не можете прикреплять файлы к сообщениям
Вы можете скачивать файлы