(Symphonic Prog) [CD] Magdalena - Magdalena (1987) - 2018, FLAC (tracks+.cue), lossless

Ответить на тему
Статистика раздачи [Обновить пиров]
Размер:  351 MB   |    Зарегистрирован:  1 месяц 11 дней   |    Скачан:  0 раз

Полного источника не было: Никогда

 
   
 
 
 
Автор Сообщение

torrentc.info

Создавать темы 12-Май-2018 23:01

[Цитировать]

Magdalena - Magdalena
[img=right]https://b.radikal.ru/b30/1805/f8/cdb158e68efb.jpg[/img]
Жанр: Symphonic Prog
Носитель: CD
Год выхода диска: 1987, 2018
Страна: Japan
Производитель диска: King Records - KICS 3629
Аудио кодек: FLAC
Тип рипа: tracks+.cue
Битрейт аудио: lossless
Продолжительность: 40:10
Наличие сканов в содержимом раздачи:
Трэклист:
01. Leanhaun-Shee (7:49)
02. Anna-Magdalena (3:53)
03. Shadow (4:46)
04. Waltz (4:41)
05. Omen (10:12)
06. Lagrima (8:49)
Состав:
- Taku Fujii / guitar
- Nobuo Itõ / drums
- Youzou Kashima / keyboards
- Chokura Nishiguchi / bass
- Megumi Tokuhisa / vocals
With:
- Kazue Akao / vocals (3)
- Kazuhiro Miyatake / flute (5)
- Hiroko Nagai / vocals (3-5)
Доп. информация: http://www.progarchives.com/artist.asp?id=222

Отчёт EAC

Exact Audio Copy V1.0 beta 3 from 29. August 2011
EAC extraction logfile from 1. April 2018, 10:28
Magdalena / Magdalena
Used drive : MATSHITADVD+-RW UJ8E2 Adapter: 0 ID: 0
Read mode : SecureUtilize accurate stream : YesDefeat audio cache : YesMake use of C2 pointers : No
Read offset correction : 103Overread into Lead-In and Lead-Out : NoFill up missing offset samples with silence : YesDelete leading and trailing silent blocks : NoNull samples used in CRC calculations : YesUsed interface : Native Win32 interface for Win NT & 2000Gap handling : Appended to previous track
Used output format : User Defined EncoderSelected bitrate : 768 kBit/sQuality : HighAdd ID3 tag : NoCommand line compressor : C:\Program Files (x86)\Exact Audio Copy\FLAC\FLAC.EXEAdditional command line options : -8 -V -T "ARTIST=%artist%" -T "TITLE=%title%" -T "ALBUM=%albumtitle%" -T "DATE=%year%" -T "TRACKNUMBER=%tracknr%" -T "TOTALTRACKS=%numtracks%" -T "GENRE=%genre%" -T "ALBUMARTIST=%albumartist%" -T "ALBUM ARTIST=%albumartist%" -T "COMMENT=EAC Secure Mode, Test & Copy, AccurateRip, FLAC -8" %source%
TOC of the extracted CD
Track | Start | Length | Start sector | End sector --------------------------------------------------------- 1 | 0:00.00 | 7:49.49 | 0 | 35223 2 | 7:49.49 | 3:52.49 | 35224 | 52672 3 | 11:42.23 | 4:46.02 | 52673 | 74124 4 | 16:28.25 | 4:42.46 | 74125 | 95320 5 | 21:10.71 | 10:12.34 | 95321 | 141254 6 | 31:23.30 | 8:47.29 | 141255 | 180808
Track 1
Filename C:\bzp01\Magdalena - Magdalena (1987) [FLAC] {2018 KICS3629}\01 - Leanhaun Shee.wav
Pre-gap length 0:00:02.00
Peak level 99.9 % Extraction speed 2.7 X Track quality 100.0 % Test CRC 4520D971 Copy CRC 4520D971 Accurately ripped (confidence 1) [4142F1D6] (AR v2) Copy OK
Track 2
Filename C:\bzp01\Magdalena - Magdalena (1987) [FLAC] {2018 KICS3629}\02 - Anna Magdalena.wav
Pre-gap length 0:00:02.27
Peak level 99.9 % Extraction speed 2.9 X Track quality 100.0 % Test CRC 6D9FCC22 Copy CRC 6D9FCC22 Accurately ripped (confidence 1) [C955132D] (AR v2) Copy OK
Track 3
Filename C:\bzp01\Magdalena - Magdalena (1987) [FLAC] {2018 KICS3629}\03 - Shadow.wav
Peak level 99.9 % Extraction speed 3.2 X Track quality 100.0 % Test CRC ABF9DFBA Copy CRC ABF9DFBA Accurately ripped (confidence 1) [0F59A63C] (AR v2) Copy OK
Track 4
Filename C:\bzp01\Magdalena - Magdalena (1987) [FLAC] {2018 KICS3629}\04 - Waltz.wav
Peak level 99.9 % Extraction speed 3.5 X Track quality 100.0 % Test CRC 6AF9F340 Copy CRC 6AF9F340 Accurately ripped (confidence 1) [92411393] (AR v2) Copy OK
Track 5
Filename C:\bzp01\Magdalena - Magdalena (1987) [FLAC] {2018 KICS3629}\05 - Omen.wav
Pre-gap length 0:00:00.60
Peak level 99.9 % Extraction speed 4.1 X Track quality 100.0 % Test CRC DD33DF1A Copy CRC DD33DF1A Accurately ripped (confidence 1) [5B5B541C] (AR v2) Copy OK
Track 6
Filename C:\bzp01\Magdalena - Magdalena (1987) [FLAC] {2018 KICS3629}\06 - Lagrima.wav
Pre-gap length 0:00:03.55
Peak level 99.9 % Extraction speed 4.5 X Track quality 100.0 % Test CRC 69A64F6F Copy CRC 69A64F6F Accurately ripped (confidence 1) [E99A2676] (AR v2) Copy OK
All tracks accurately ripped
No errors occurred
End of status report
==== Log checksum 99DF5C87F5A2680C20F2A83AFFBC48DFC519837F94911EC5CC843CA4E1DB30C1 ====

.cue

REM GENRE "Progressive Rock"REM DATE 1987REM DISCID 4D096A06REM COMMENT "ExactAudioCopy v1.0b3"PERFORMER "Magdalena"TITLE "Magdalena"FILE "01 - Leanhaun Shee.wav" WAVE TRACK 01 AUDIO TITLE "Leanhaun Shee" PERFORMER "Magdalena" INDEX 01 00:00:00 TRACK 02 AUDIO TITLE "Anna Magdalena" PERFORMER "Magdalena" INDEX 00 07:47:22FILE "02 - Anna Magdalena.wav" WAVE INDEX 01 00:00:00FILE "03 - Shadow.wav" WAVE TRACK 03 AUDIO TITLE "Shadow" PERFORMER "Magdalena" INDEX 01 00:00:00FILE "04 - Waltz.wav" WAVE TRACK 04 AUDIO TITLE "Waltz" PERFORMER "Magdalena" INDEX 01 00:00:00 TRACK 05 AUDIO TITLE "Omen" PERFORMER "Magdalena" INDEX 00 04:41:61FILE "05 - Omen.wav" WAVE INDEX 01 00:00:00 TRACK 06 AUDIO TITLE "Lagrima" PERFORMER "Magdalena" INDEX 00 10:08:54FILE "06 - Lagrima.wav" WAVE INDEX 01 00:00:00
Источник: Torrentc bzp01


[torrentc.info]_t_5559200.torrent
Торрент: Зарегистрирован ·  [ 2018-05-12 22:57 ] ·  3a1efff504462078201817c3ccde9f2f19f45847

31 KB

Статус: проверено
Скачан: 0 раз
Размер: 351 MB
Оценка: 
(Голосов: 0)
Сказали спасибо: 0  Спасибо
Похожие темы
[Профиль]    [ЛС]
Показать сообщения:    
Ответить на тему

Текущее время: Сегодня 00:38

Часовой пояс: GMT + 7



Вы не можете начинать темы
Вы не можете отвечать на сообщения
Вы не можете редактировать свои сообщения
Вы не можете удалять свои сообщения
Вы не можете голосовать в опросах
Вы не можете прикреплять файлы к сообщениям
Вы можете скачивать файлы