(Zamrock, Heavy Psych) [CD] Ngozi Family — Day of Judgement [bonus tracks] — 1976 (2014), FLAC (tracks+.cue), lossless

Ответить на тему
Статистика раздачи [Обновить пиров]
Размер:  282 MB   |    Зарегистрирован:  3 месяца 3 дня   |    Скачан:  0 раз

Полного источника не было: Никогда

 
   
 
 
 
Автор Сообщение

torrentc.info

Создавать темы 12-Май-2018 23:01

[Цитировать]

Ngozi Family — "Day of Judgement" — 1976
____________________________________________________

СТРАНА ГРУППЫ: Zambia
ЖАНРЫ: Zamrock | Heavy Psych
ФОРМАТ: CD | Album [bonus tracks]
ЛЭЙБЛ: Now-Again (USA) / 2014
№ ПО КАТАЛОГУ: NA 5115
ТИП РИПА: tracks+.cue
КОДЕК: FLAC (*.flac)
БИТРЕЙТ: Lossless
ИСТОЧНИК: Λpollo
.
track listing
01. Day of Judgement (06:13)
02. Hi-Babe (04:04)
03. I Wanna Know (04:40)
04. Kumanda Kwa Bambo Wanga (03:30)
05. Tikondane (03:51)
06. Bwanawe (04:22)
07. Let Me Know (03:59)
08. We Wonna Give It to Her (04:03)
09. I'm on My Way (04:30)
10. She Looks So Crazy [bonus track] (02:57)
11. Sunka Mulamu [bonus track] (04:20)
12. We Were Not Told [bonus track] (02:44)
13. I've Been Looking for You [bonus track] (04:05)
total length (00:53:12)

—l o g

Exact Audio Copy V1.0 beta 3 from 29. August 2011
EAC extraction logfile from 13. October 2014, 10:13
Ngozi Family / Day Of Judgement
Used drive : HL-DT-STDVDRAM SP60NB50 Adapter: 2 ID: 0
Read mode : SecureUtilize accurate stream : YesDefeat audio cache : YesMake use of C2 pointers : No
Read offset correction : 6Overread into Lead-In and Lead-Out : NoFill up missing offset samples with silence : YesDelete leading and trailing silent blocks : NoNull samples used in CRC calculations : YesUsed interface : Native Win32 interface for Win NT & 2000Gap handling : Appended to previous track
Used output format : User Defined EncoderSelected bitrate : 1024 kBit/sQuality : HighAdd ID3 tag : NoCommand line compressor : C:\Program Files (x86)\Exact Audio Copy\Flac\flac.exeAdditional command line options : -8 -V -T "ARTIST=%artist%" -T "TITLE=%title%" -T "ALBUM=%albumtitle%" -T "DATE=%year%" -T "TRACKNUMBER=%tracknr%" -T "GENRE=%genre%" -T "PERFORMER=%albuminterpret%" -T "COMPOSER=%composer%" %haslyrics%--tag-from-file=LYRICS="%lyricsfile%"%haslyrics% -T "ALBUMARTIST=%albumartist%" -T "DISCNUMBER=%cdnumber%" -T "TOTALDISCS=%totalcds%" -T "TOTALTRACKS=%numtracks%" -T "COMMENT=%comment%" %source% -o %dest%
TOC of the extracted CD
Track | Start | Length | Start sector | End sector --------------------------------------------------------- 1 | 0:00.00 | 6:12.18 | 0 | 27917 2 | 6:12.18 | 4:03.47 | 27918 | 46189 3 | 10:15.65 | 4:39.72 | 46190 | 67186 4 | 14:55.62 | 3:29.42 | 67187 | 82903 5 | 18:25.29 | 3:50.51 | 82904 | 100204 6 | 22:16.05 | 4:21.65 | 100205 | 119844 7 | 26:37.70 | 3:58.08 | 119845 | 137702 8 | 30:36.03 | 4:02.08 | 137703 | 155860 9 | 34:38.11 | 4:29.20 | 155861 | 176055 10 | 39:07.31 | 2:56.14 | 176056 | 189269 11 | 42:03.45 | 4:19.60 | 189270 | 208754 12 | 46:23.30 | 2:43.41 | 208755 | 221020 13 | 49:06.71 | 4:04.10 | 221021 | 239330
Track 1
Filename C:\FLAC Rips\Ngozi Family - Day Of Judgement (2014) [FLAC] {NA 5115}\01 - Day Of Judgement.wav
Pre-gap length 0:00:02.00
Peak level 100.0 % Extraction speed 1.2 X Track quality 100.0 % Test CRC C4DC5561 Copy CRC C4DC5561 Track not present in AccurateRip database Copy OK
Track 2
Filename C:\FLAC Rips\Ngozi Family - Day Of Judgement (2014) [FLAC] {NA 5115}\02 - Hey Babe.wav
Peak level 100.0 % Extraction speed 1.3 X Track quality 100.0 % Test CRC B5503712 Copy CRC B5503712 Track not present in AccurateRip database Copy OK
Track 3
Filename C:\FLAC Rips\Ngozi Family - Day Of Judgement (2014) [FLAC] {NA 5115}\03 - I Wanna Know.wav
Peak level 100.0 % Extraction speed 1.4 X Track quality 100.0 % Test CRC F436F9DF Copy CRC F436F9DF Track not present in AccurateRip database Copy OK
Track 4
Filename C:\FLAC Rips\Ngozi Family - Day Of Judgement (2014) [FLAC] {NA 5115}\04 - Kumanda Kwa Bambo Wanga.wav
Peak level 100.0 % Extraction speed 1.5 X Track quality 100.0 % Test CRC C08D3CF3 Copy CRC C08D3CF3 Track not present in AccurateRip database Copy OK
Track 5
Filename C:\FLAC Rips\Ngozi Family - Day Of Judgement (2014) [FLAC] {NA 5115}\05 - Tikondane.wav
Peak level 99.4 % Extraction speed 1.6 X Track quality 100.0 % Test CRC 70C6227A Copy CRC 70C6227A Track not present in AccurateRip database Copy OK
Track 6
Filename C:\FLAC Rips\Ngozi Family - Day Of Judgement (2014) [FLAC] {NA 5115}\06 - Bwanawe.wav
Peak level 97.0 % Extraction speed 1.7 X Track quality 100.0 % Test CRC 8A3BC37A Copy CRC 8A3BC37A Track not present in AccurateRip database Copy OK
Track 7
Filename C:\FLAC Rips\Ngozi Family - Day Of Judgement (2014) [FLAC] {NA 5115}\07 - Let Me Know.wav
Peak level 97.2 % Extraction speed 1.8 X Track quality 100.0 % Test CRC 6812710A Copy CRC 6812710A Track not present in AccurateRip database Copy OK
Track 8
Filename C:\FLAC Rips\Ngozi Family - Day Of Judgement (2014) [FLAC] {NA 5115}\08 - We Wonna Give It To Her.wav
Peak level 100.0 % Extraction speed 1.9 X Track quality 100.0 % Test CRC 6E17E930 Copy CRC 6E17E930 Track not present in AccurateRip database Copy OK
Track 9
Filename C:\FLAC Rips\Ngozi Family - Day Of Judgement (2014) [FLAC] {NA 5115}\09 - I'm On My Way.wav
Peak level 99.7 % Extraction speed 1.7 X Track quality 99.9 % Test CRC A4794BED Copy CRC A4794BED Track not present in AccurateRip database Copy OK
Track 10
Filename C:\FLAC Rips\Ngozi Family - Day Of Judgement (2014) [FLAC] {NA 5115}\10 - She Looks So Crazy.wav
Peak level 95.0 % Extraction speed 1.9 X Track quality 100.0 % Test CRC 27F6482B Copy CRC 27F6482B Track not present in AccurateRip database Copy OK
Track 11
Filename C:\FLAC Rips\Ngozi Family - Day Of Judgement (2014) [FLAC] {NA 5115}\11 - Sunka Mulamu.wav
Peak level 95.3 % Extraction speed 2.0 X Track quality 100.0 % Test CRC 4B37BC83 Copy CRC 4B37BC83 Track not present in AccurateRip database Copy OK
Track 12
Filename C:\FLAC Rips\Ngozi Family - Day Of Judgement (2014) [FLAC] {NA 5115}\12 - We Were Not Told.wav
Peak level 95.1 % Extraction speed 2.0 X Track quality 100.0 % Test CRC AC5ECEAE Copy CRC AC5ECEAE Track not present in AccurateRip database Copy OK
Track 13
Filename C:\FLAC Rips\Ngozi Family - Day Of Judgement (2014) [FLAC] {NA 5115}\13 - I've Been Looking For You.wav
Peak level 96.5 % Extraction speed 2.1 X Track quality 100.0 % Test CRC FEBA4935 Copy CRC FEBA4935 Track not present in AccurateRip database Copy OK
None of the tracks are present in the AccurateRip database
No errors occurred
End of status report
---- CUETools DB Plugin V2.1.3
[CTDB TOCID: C51SJGc8OkxvKFyAIcMs.oT9kKA-] disk not present in database, Submit result: C51SJGc8OkxvKFyAIcMs.oT9kKA- has been uploaded
==== Log checksum EAA501FE6E5DF1C6F5B68E8F6C3614E20F798C794DE63D4F043E7889B90C9A0C ====

.c u e

REM GENRE ZamrockREM DATE 1976REM DISCID D10C770DREM COMMENT "ExactAudioCopy v1.0b3"PERFORMER "Ngozi Family"TITLE "Day of Judgement"FILE "01. Day of Judgement.wav" WAVE TRACK 01 AUDIO TITLE "Day of Judgement" PERFORMER "Ngozi Family" INDEX 01 00:00:00FILE "02. Hi-Babe.wav" WAVE TRACK 02 AUDIO TITLE "Hi-Babe" PERFORMER "Ngozi Family" INDEX 01 00:00:00FILE "03. I Wanna Know.wav" WAVE TRACK 03 AUDIO TITLE "I Wanna Know" PERFORMER "Ngozi Family" INDEX 01 00:00:00FILE "04. Kumanda Kwa Bambo Wanga.wav" WAVE TRACK 04 AUDIO TITLE "Kumanda Kwa Bambo Wanga" PERFORMER "Ngozi Family" INDEX 01 00:00:00FILE "05. Tikondane.wav" WAVE TRACK 05 AUDIO TITLE "Tikondane" PERFORMER "Ngozi Family" INDEX 01 00:00:00FILE "06. Bwanawe.wav" WAVE TRACK 06 AUDIO TITLE "Bwanawe" PERFORMER "Ngozi Family" INDEX 01 00:00:00FILE "07. Let Me Know.wav" WAVE TRACK 07 AUDIO TITLE "Let Me Know" PERFORMER "Ngozi Family" INDEX 01 00:00:00FILE "08. We Wonna Give It to Her.wav" WAVE TRACK 08 AUDIO TITLE "We Wonna Give It to Her" PERFORMER "Ngozi Family" INDEX 01 00:00:00FILE "09. I'm on My Way.wav" WAVE TRACK 09 AUDIO TITLE "I'm on My Way" PERFORMER "Ngozi Family" INDEX 01 00:00:00FILE "10. She Looks So Crazy.wav" WAVE TRACK 10 AUDIO TITLE "She Looks So Crazy" PERFORMER "Ngozi Family" INDEX 01 00:00:00FILE "11. Sunka Mulamu.wav" WAVE TRACK 11 AUDIO TITLE "Sunka Mulamu" PERFORMER "Ngozi Family" INDEX 01 00:00:00FILE "12. We Were Not Told.wav" WAVE TRACK 12 AUDIO TITLE "We Were Not Told" PERFORMER "Ngozi Family" INDEX 01 00:00:00FILE "13. I've Been Looking for You.wav" WAVE TRACK 13 AUDIO TITLE "I've Been Looking for You" PERFORMER "Ngozi Family" INDEX 01 00:00:00


[torrentc.info]_t_5559271.torrent
Торрент: Зарегистрирован ·  [ 2018-05-12 22:57 ] ·  9e6daa4b0b8b009fdbe9a752733ef7c087457711

12 KB

Статус: проверено
Скачан: 0 раз
Размер: 282 MB
Оценка: 
(Голосов: 0)
Сказали спасибо: 0  Спасибо
Похожие темы
[Профиль]    [ЛС]
Показать сообщения:    
Ответить на тему

Текущее время: Сегодня 00:23

Часовой пояс: GMT + 7



Вы не можете начинать темы
Вы не можете отвечать на сообщения
Вы не можете редактировать свои сообщения
Вы не можете удалять свои сообщения
Вы не можете голосовать в опросах
Вы не можете прикреплять файлы к сообщениям
Вы можете скачивать файлы