(Progressive Rock/Jazz-Rock) [WEB] Spectra - No Secrets - The Lost Tracks - 1979 (2018), FLAC (tracks), lossless

Ответить на тему
Статистика раздачи [Обновить пиров]
Размер:  396 MB   |    Зарегистрирован:  1 месяц 10 дней   |    Скачан:  0 раз

Полного источника не было: Никогда

 
   
 
 
 
Автор Сообщение

torrentc.info

Создавать темы 12-Май-2018 23:01

[Цитировать]

Spectra / No Secrets - The Lost Tracks
Жанр: Progressive Rock/Jazz-Rock
Носитель: WEB
Год издания: 1979
Страна исполнителя (группы): USA
Аудиокодек: FLAC (*.flac)
Тип рипа: tracks
Битрейт аудио: lossless
Продолжительность: 56:40
Источник (релизер): Bandcamp
Наличие сканов в содержимом раздачи: cover, back

01. Spare Change/Rags On A Chain [00:12:49]
02. Risky Business [00:03:35]
03. The Best [00:04:04]
04. Fast [00:04:10]
05. Stay Awhile [00:05:50]
06. Rich Kid [00:04:40]
07. After You Kissed Me [00:01:13]
08. Let Go [00:05:18]
09. Shock Treatment [00:02:28]
10. A Good Day [00:03:07]
11. Falling [00:04:10]
12. Farther [00:05:10]--

Доп. информация

Re-Mastered and digitized 1979 Spectra Lp recorded on two 4-track reel to reel tape recorders, Maple Park Studios, Paradise CA 1979 copyright pending.
All songs written and arranged by Spectra copyright 1979 (re-issue 2018)
Released April 8, 2018

Состав

Johnny Burgess - Wurlitzer Baby Grand Piano, Oberheim, Arp Soloist, Arp Omni, and Vocals.
Randall Holiday Bumpous - Bass, Moog Taurus Bass Pedals, Vocals.
Billy Councilman - Drums and Percussion, Vocals.
Russell Jones - Guitar and Vocals
Neil Montgomery - Tenor Sax, Flute, Vocals

Лог проверки качества

-----------------------
DON'T MODIFY THIS FILE
-----------------------
PERFORMER: auCDtect Task Manager, ver. 1.6.0 RC1 build 1.6.0.1Copyright (c) 2008-2010 y-soft. All rights reservedhttp://y-soft.org
ANALYZER: auCDtect: CD records authenticity detector, version 0.8.2Copyright (c) 2004 Oleg Berngardt. All rights reserved.Copyright (c) 2004 Alexander Djourik. All rights reserved.
FILE: Spectra - Spectra -No Secrets-The Lost Tracks- - 12 Farther.flac Size: 37046074 Hash: B16242BC774697B8ED9D4A8E3665C756 Accuracy: -m0 Conclusion: MPEG 95% Signature: 6D3EBAFF6FD4A66A1339A50520CAFD282BB67A4EFILE: Spectra - Spectra -No Secrets-The Lost Tracks- - 11 Falling.flac Size: 28659875 Hash: C2EE69C74DEEC8599C9CB92747A25FC6 Accuracy: -m0 Conclusion: MPEG 95% Signature: AE1F17A9FE9F3BE1A9D13B4B3FC93F861B77DE56FILE: Spectra - Spectra -No Secrets-The Lost Tracks- - 10 A Good Day.flac Size: 23035768 Hash: 928B7357C5BF2EAD86FD70778F33E9F9 Accuracy: -m0 Conclusion: MPEG 95% Signature: D73CF2B42DCEE117366E4E8F57DD49614229C5EEFILE: Spectra - Spectra -No Secrets-The Lost Tracks- - 09 Shock Treatment.flac Size: 18058441 Hash: 45294E9E745C749D82D5517AF501FAE7 Accuracy: -m0 Conclusion: MPEG 95% Signature: 89FE1677958A8DF9E340E635FCE5CB0478A920A4FILE: Spectra - Spectra -No Secrets-The Lost Tracks- - 08 Let Go.flac Size: 38956897 Hash: 9DD122255A37B276EF48149E53C36D66 Accuracy: -m0 Conclusion: MPEG 95% Signature: 28173E620497E07D15B26A491D0BE723AB3AF2A0FILE: Spectra - Spectra -No Secrets-The Lost Tracks- - 07 After You Kissed Me.flac Size: 9048382 Hash: 3102E36E4E11377BEA732EAD33377C33 Accuracy: -m0 Conclusion: MPEG 95% Signature: 163A53B437D4AC88BC9EC61F0674DE6430874FD0FILE: Spectra - Spectra -No Secrets-The Lost Tracks- - 06 Rich Kid.flac Size: 34008318 Hash: 586DFE59D4D0C2E59CB4AB404505F822 Accuracy: -m0 Conclusion: MPEG 95% Signature: 08EF4EB077716B2ABE18F2159DFF5295AFDDE13EFILE: Spectra - Spectra -No Secrets-The Lost Tracks- - 05 Stay Awhile.flac Size: 44580809 Hash: B8531BDAC3456F5C2F9EF662804EF494 Accuracy: -m0 Conclusion: MPEG 95% Signature: 8F1038452F16E6F85CEC99FBAC28E5F2BC5C5030FILE: Spectra - Spectra -No Secrets-The Lost Tracks- - 04 Fast.flac Size: 33550897 Hash: 79FF343136D00C93446CCC9FC4903506 Accuracy: -m0 Conclusion: MPEG 95% Signature: CAAD1D85DEFFF0FC260D1B10256367691138F4FAFILE: Spectra - Spectra -No Secrets-The Lost Tracks- - 03 The Best.flac Size: 30006476 Hash: 9E03111EA57DB3096A56D256CB3808E4 Accuracy: -m0 Conclusion: MPEG 95% Signature: 8D5E911EF2F642B129DD40506BEA14FAA5262A24FILE: Spectra - Spectra -No Secrets-The Lost Tracks- - 02 Risky Business.flac Size: 27885682 Hash: 368C0EFAFFB296242FAC6E74B96EF78D Accuracy: -m0 Conclusion: MPEG 95% Signature: 8A41C63A3E0994888E6DAF827C05DDF089D31B6AFILE: Spectra - Spectra -No Secrets-The Lost Tracks- - 01 Spare Change-Rags On A Chain.flac Size: 89834181 Hash: C0CAEFF2C22403D608CB717B55FE9747 Accuracy: -m0 Conclusion: MPEG 95% Signature: 01D040010A83BC3230C634FA243BE765E311A2E8

Скриншот спектра частот












DRM log

foobar2000 1.3.12 / Dynamic Range Meter 1.1.1log date: 2018-05-09 18:13:48
--------------------------------------------------------------------------------Analyzed: Spectra / Spectra "No Secrets-The Lost Tracks"--------------------------------------------------------------------------------
DR Peak RMS Duration Track--------------------------------------------------------------------------------DR8 0.00 dB -9.37 dB 12:50 01-Spare Change/Rags On A ChainDR7 0.00 dB -8.87 dB 3:36 02-Risky BusinessDR6 0.00 dB -8.45 dB 4:04 03-The BestDR7 0.00 dB -8.42 dB 4:11 04-FastDR7 0.00 dB -8.76 dB 5:50 05-Stay AwhileDR6 0.00 dB -7.70 dB 4:40 06-Rich KidDR9 0.00 dB -10.33 dB 1:14 07-After You Kissed MeDR7 0.00 dB -9.03 dB 5:19 08-Let GoDR7 0.00 dB -8.12 dB 2:28 09-Shock TreatmentDR7 0.00 dB -8.64 dB 3:07 10-A Good DayDR8 0.00 dB -11.99 dB 4:11 11-FallingDR8 0.00 dB -9.42 dB 5:11 12-Farther--------------------------------------------------------------------------------
Number of tracks: 12Official DR value: DR7
Samplerate: 44100 HzChannels: 2Bits per sample: 16Bitrate: 950 kbpsCodec: FLAC================================================================================
--


[torrentc.info]_t_5559604.torrent
Торрент: Зарегистрирован ·  [ 2018-05-12 22:57 ] ·  373ee73ea5ba4b613c5a01ffa38bfb3f5ae2317e

17 KB

Статус: проверено
Скачан: 0 раз
Размер: 396 MB
Оценка: 
(Голосов: 0)
Сказали спасибо: 0  Спасибо
Похожие темы
[Профиль]    [ЛС]
Показать сообщения:    
Ответить на тему

Текущее время: Сегодня 09:59

Часовой пояс: GMT + 7



Вы не можете начинать темы
Вы не можете отвечать на сообщения
Вы не можете редактировать свои сообщения
Вы не можете удалять свои сообщения
Вы не можете голосовать в опросах
Вы не можете прикреплять файлы к сообщениям
Вы можете скачивать файлы