(Crossover Prog) [WEB] Earth Meet World (ex-Projected Twin) - EtW Acoustic Sessions & Singles - 2010-2017, FLAC (tracks), lossless

Ответить на тему
Статистика раздачи [Обновить пиров]
Размер:  262 MB   |    Зарегистрирован:  3 месяца 3 дня   |    Скачан:  0 раз

Полного источника не было: Никогда

 
   
 
 
 
Автор Сообщение

torrentc.info

Создавать темы 12-Май-2018 23:01

[Цитировать]

Earth Meet World / EtW Acoustic Sessions & Singles
Жанр: Crossover Prog
Носитель: WEB
Год издания: 2010-2017
Страна исполнителя (группы): Australia
Аудиокодек: FLAC (*.flac)
Тип рипа: tracks
Битрейт аудио: lossless
Продолжительность: 42:25
Источник (релизер): Bandcamp
Наличие сканов в содержимом раздачи: нет

EtW Acoustic Sessions (EP) 2010
01. Redemption Away (Acoustic) [00:02:45]
02. We Know It's True (Acoustic) [00:05:00]
03. Fool Me Twice [00:03:12]
04. The Signature [00:04:52]
Singles:
05. Take Me To Your Leader (2011) [00:05:26]
06. All I Need (RadioHead Cover) 2011 [00:03:35]
07. Shark Water (Live) 2012 [00:04:18]
08. DudeLikeHELLA Alaska Theme (2014) [00:00:34]
09. Old Shoes (2015) [00:04:06]
10. Adjust Remebered (2015) [00:04:44]
11. We Submerge (Prelude) (2017) [00:03:48]--

Состав

Shaun Holton - Vocals, All Instruments

Лог проверки качества

-----------------------
DON'T MODIFY THIS FILE
-----------------------
PERFORMER: auCDtect Task Manager, ver. 1.6.0 RC1 build 1.6.0.1Copyright (c) 2008-2010 y-soft. All rights reservedhttp://y-soft.org
ANALYZER: auCDtect: CD records authenticity detector, version 0.8.2Copyright (c) 2004 Oleg Berngardt. All rights reserved.Copyright (c) 2004 Alexander Djourik. All rights reserved.
FILE: 11 We Submerge (Prelude).flac Size: 25183039 Hash: 22535F33C957419085C6D0324CDDC22B Accuracy: -m0 Conclusion: CDDA 100% Signature: B8F8C9A990185F2D2BA27F5FED2B2CE99036FCE4FILE: 10 Adjust Remebered.flac Size: 29290080 Hash: 7335A1F2FB0175DD8A82EB5501A0C6F4 Accuracy: -m0 Conclusion: CDDA 100% Signature: F86AF9BB4577DBEDA2FC14C242F409A13850A1A4FILE: 09 Old Shoes.flac Size: 29983246 Hash: 99F9ED86D9164514AC75ADE95C28590C Accuracy: -m0 Conclusion: CDDA 100% Signature: 2B727665B246B511F030A55B4B88060E5B4C0CF8FILE: 08. DudeLikeHELLA Alaska Theme.flac Size: 3514962 Hash: 588B3D2EBCA16E6D946559C679337291 Accuracy: -m0 Conclusion: CDDA 100% Signature: EE467601F06FA9CC4FA68F75E72A348B24F0CF1BFILE: 07. Shark Water 'live'(Single).flac Size: 25755553 Hash: B17DD5D67CBD2897BC2F59D860C146E0 Accuracy: -m0 Conclusion: CDDA 100% Signature: 091E6ECF5852BB3446A01C638B5846518A024982FILE: 06. All I Need (RadioHead Cover).flac Size: 19442768 Hash: F756BDC85AB275783494898A00531B8B Accuracy: -m0 Conclusion: CDDA 100% Signature: 367CC8AEF950E5899521BD701926706E0F2DCA27FILE: 05. Take Me To Your Leader.flac Size: 36013209 Hash: D93863DABFD8578CC1E91651878E29B3 Accuracy: -m0 Conclusion: CDDA 100% Signature: 31D0D6E32067174AFCB9323CE4296C4FACFFE5D1FILE: 04. The Signature.flac Size: 32325277 Hash: AC0D297FF252028D8171F5DB9A88DA16 Accuracy: -m0 Conclusion: CDDA 100% Signature: 38F0865132AE6EFE9F53799398539D516AFDFBDCFILE: 03. Fool Me Twice.flac Size: 18086653 Hash: AE2CE2AE4FCC563FF613D8A0981701AD Accuracy: -m0 Conclusion: CDDA 100% Signature: 8B40F1E1BDC87B4FADC23899802F8A176FA7718EFILE: 02. We Know It's True (Acoustic).flac Size: 32406683 Hash: 07AC80177EA0781AEDAEC1E4A02C06DE Accuracy: -m0 Conclusion: CDDA 100% Signature: 1380FDF313470A82A6D1BF0F614DB98832BE9A36FILE: 01 Redemption Away (Acoustic).flac Size: 19874087 Hash: EEB429DE5D6F1A01A72ED0D3730D0A3D Accuracy: -m0 Conclusion: CDDA 100% Signature: 7C9F3CB0EA67863E3865274801D546FB2C7C87EC

DRM log

foobar2000 1.3.12 / Dynamic Range Meter 1.1.1log date: 2018-05-09 21:19:09
--------------------------------------------------------------------------------Analyzed: Earth Meet World / EtW Acoustic Sessions & Singles--------------------------------------------------------------------------------
DR Peak RMS Duration Track--------------------------------------------------------------------------------DR6 0.00 dB -7.71 dB 2:46 01-Redemption Away (Acoustic)DR10 -1.82 dB -13.85 dB 5:01 02-We Know It's True (Acoustic)DR15 0.00 dB -18.07 dB 3:12 03-Fool Me TwiceDR9 0.00 dB -11.01 dB 4:53 04-The SignatureDR7 0.00 dB -8.72 dB 5:26 05-Take Me To Your LeaderDR14 0.00 dB -17.86 dB 3:35 06-All I Need (RadioHead Cover)DR9 0.00 dB -12.62 dB 4:19 07-Shark Water 'live'(Single)DR12 -0.13 dB -15.67 dB 0:34 08-DudeLikeHELLA Alaska ThemeDR6 -0.20 dB -8.17 dB 4:06 09-Old ShoesDR6 -0.20 dB -9.04 dB 4:45 10-Adjust RemeberedDR7 -0.30 dB -9.61 dB 3:48 11-We Submerge (Prelude)--------------------------------------------------------------------------------
Number of tracks: 11Official DR value: DR9
Samplerate: 44100 HzChannels: 2Bits per sample: 16Bitrate: 880 kbpsCodec: FLAC================================================================================
--


[torrentc.info]_t_5559692.torrent
Торрент: Зарегистрирован ·  [ 2018-05-12 22:57 ] ·  72d17d5c2799b752bdf4942e05e6c78e49f621df

11 KB

Статус: проверено
Скачан: 0 раз
Размер: 262 MB
Оценка: 
(Голосов: 0)
Сказали спасибо: 0  Спасибо
Похожие темы
[Профиль]    [ЛС]
Показать сообщения:    
Ответить на тему

Текущее время: Сегодня 00:21

Часовой пояс: GMT + 7



Вы не можете начинать темы
Вы не можете отвечать на сообщения
Вы не можете редактировать свои сообщения
Вы не можете удалять свои сообщения
Вы не можете голосовать в опросах
Вы не можете прикреплять файлы к сообщениям
Вы можете скачивать файлы