Секретный доступ: Ватикан / Secret Access: The Vatican (Брюс Кеннеди / Bruce Kennedy) [2011, Документальный, HDTV 1080i], History Channel

Ответить на тему
Статистика раздачи [Обновить пиров]
Размер:  6.96 GB   |    Зарегистрирован:  5 месяцев 9 дней   |    Скачан:  0 раз
Сидеров:  2  [  0 KB/s  ]   Подробная статистика скачивающих
 
   
 
 
 
Автор Сообщение

torrentc.info

Создавать темы 10-Май-2018 22:07

[Цитировать]

Секретный доступ: Ватикан / Secret Access: The Vatican
[img=right]https://a.radikal.ru/a43/1804/3e/7b6aa49fa82a.jpg[/img]
Год выхода: 2011
Страна: США
Студия: Stephen David Entertainment
Жанр: Документальный
Продолжительность: 01:24:48
Перевод: Одноголосый закадровый
Доп. инфо о переводе: ТПО "Ред Медиа"
Русские субтитры: нет
Режиссер: Брюс Кеннеди / Bruce Kennedy
Описание: Государство Ватикан... Расположенное на одном из римских холмов, оно занимает особое место в сердцах католиков по всему миру. Ежегодно миллионы туристов устремляются к его церквям и музеям. Однако, с нашей помощью, вы попадете туда, куда туристам вход запрещен - за закрытые двери одних из самых закрытых, таинственных и секретных помещений Ватикана, штаб-квартиры института католической церкви. Здесь Папа живет, работает и несет слово Божие миллионам и миллионам верующих. Мы откроем вам двери Собора и дворца, где Папа проводит время в уединении, и в хранилище, которое хранит секреты древнего института религии. Вас ждет путешествие в прошлое: вы увидите могилу первого апостола Христа, который покоится в катакомбах Собора Святого Петра. Вы побываете в секретном архиве Ватикана, узнаете о переписке с Авраамом Линкольном во время Гражданской войны, а так же об уникальном союзе, грозившем свергнуть коммунизм.
Доп. информация:
[img]https://a.radikal.ru/a27/1712/45/d11ad852d4d2.png[/img] и [img]https://s010.radikal.ru/i313/1704/cb/bd10ac4a7658.gif[/img]
Сэмпл: http://multi-up.com/1194842
Тип релиза: HDTV 1080i
Формат файла: TS
Видео: 1920x1080 at 25.000 fps, MPEG-4 AVC, ~10.8 Mbps avg
Аудио: Русский: 48 kHz, AC3, 2/0 (L,R) ch, ~192.00 kbps avg | ТПО "Ред Медиа" |
Аудио 2: English: 48 kHz, AC3, 2/0 (L,R) ch, ~192.00 kbps avg
Формат файла субтитров: English hardsub (неотключаемые) - на итальянскую речь

MediaInfo

ОбщееИдентификатор : 1 (0x1)Полное имя : Secret.Access.The.Vatican.2011.1080i.HDTV.Rus.Eng-BLUEBIRD.tsФормат файла : MPEG-TSРазмер файла : 6,96 ГбайтПродолжительность : 1 ч. 24 м.Режим общего битрейта : ПеременныйОбщий поток : 11,7 Мбит/секМаксимальный общий битрейт : 35,5 Мбит/сек
ВидеоИдентификатор : 4113 (0x1011)Идентификатор меню : 1 (0x1)Формат файла : AVCФормат файла/Информация : Advanced Video CodecПрофиль формата : Main@L4Настройки формата : CABAC / 4 Ref FramesПараметр CABAC формата : ДаПараметр RefFrames формата : 4 кадраПараметр GOP формата : M=4, N=12Идентификатор кодека : 27Продолжительность : 1 ч. 24 м.Вид битрейта : ПеременныйБитрейт : 10,8 Мбит/секМаксимальный битрейт : 40,0 Мбит/секШирина : 1920 пикселейВысота : 1080 пикселейСоотношение сторон : 16:9Частота кадров : 25,000 кадров/секЦветовое пространство : YUVСубдискретизация насыщенности : 4:2:0Битовая глубина : 8 битТип развёртки : ЧересстрочнаяМетод сохранения типа развёртки : Раздельные поляПорядок развёртки : Верхнее поле первоеБит/(Пиксели*Кадры) : 0.208Размер потока : 6,38 Гбайт (92%)Цветовой диапазон : LimitedОсновные цвета : BT.709Характеристики трансфера : BT.709Коэффициенты матрицы : BT.709
Аудио #1Идентификатор : 4352 (0x1100)Идентификатор меню : 1 (0x1)Формат файла : AC-3Формат файла/Информация : Audio Coding 3Идентификатор кодека : 129Продолжительность : 1 ч. 24 м.Вид битрейта : ПостоянныйБитрейт : 192 Кбит/секКаналы : 2 каналаРасположение каналов : Front: L RЧастота : 48,0 КГцЧастота кадров : 31,250 кадров/сек (1536 SPF)Битовая глубина : 16 битМетод сжатия : С потерямиРазмер потока : 116 Мбайт (2%)Язык : RussianServiceKind/String : Complete Main
Аудио #2Идентификатор : 4353 (0x1101)Идентификатор меню : 1 (0x1)Формат файла : AC-3Формат файла/Информация : Audio Coding 3Идентификатор кодека : 129Продолжительность : 1 ч. 24 м.Вид битрейта : ПостоянныйБитрейт : 192 Кбит/секКаналы : 2 каналаРасположение каналов : Front: L RЧастота : 48,0 КГцЧастота кадров : 31,250 кадров/сек (1536 SPF)Битовая глубина : 16 битМетод сжатия : С потерямиРазмер потока : 116 Мбайт (2%)Язык : EnglishServiceKind/String : Complete Main


[torrentc.info]_t_5548311.torrent
Торрент: Зарегистрирован ·  [ 2018-05-10 22:05 ] ·  b689631c3a3ac406f8f268b7c0a6ebb6ae3d8464

35 KB

Статус: проверено
Скачан: 0 раз
Размер: 6.96 GB
Оценка: 
(Голосов: 0)
Сказали спасибо: 0  Спасибо
Похожие темы
[Профиль]    [ЛС]
Показать сообщения:    
Ответить на тему

Текущее время: Сегодня 20:42

Часовой пояс: GMT + 7



Вы не можете начинать темы
Вы не можете отвечать на сообщения
Вы не можете редактировать свои сообщения
Вы не можете удалять свои сообщения
Вы не можете голосовать в опросах
Вы не можете прикреплять файлы к сообщениям
Вы можете скачивать файлы