Восьмёрка беглецов / Eight on the Lam (Джордж Маршалл / George Marshall) [1967, США, комедия, DVDRip] MVO (НТВ+) + Original (ENG)

Ответить на тему
Статистика раздачи [Обновить пиров]
Размер:  794 MB   |    Зарегистрирован:  5 месяцев 8 дней   |    Скачан:  0 раз

Полного источника не было: Никогда

 
   
 
 
 
Автор Сообщение

torrentc.info

Создавать темы 09-Май-2018 23:52

[Цитировать]

Восьмёрка беглецов / Eight on the Lam
Страна: США
Жанр: комедия
Год выхода: 1967
Продолжительность: 01:43:10
Перевод: профессиональный (многоголосый закадровый) - НТВ+
Субтитры: нет
Оригинальная аудиодорожка: английская
Режиссер: Джордж Маршалл / George Marshall
В ролях:
Боб Хоуп, Филлис Диллер, Ширли Итон, Джилл Сент-Джон, Стэйси Максвелл, Кевин Броди, Деби Сторм, Остин Уиллис, Питер Лидс, Джонатан Уинтерс и др.
Описание:
Банковский кассир Генри, вдовец с семью детьми, находит на автостоянке 10000 долларов. Тем временем в его банке обнаруживают крупную недостачу, и семейство вынуждено пуститься в бега...
БОЛЬШОЕ СПАСИБО:
За исходный DVD - http://Torrentc/forum/viewtopic.php?t=5141504 - rjhlb777
Русская звуковая дорожка - edich2

Сэмпл: http://multi-up.com/1197695
Качество видео: DVDRip
Формат файла: AVI
Видео: 512x320 (1.60:1), 25 fps, XviD build 73 ~809 kbps avg, 0.20 bit/pixel
Аудио 1: 48 kHz, MPEG Layer 3, 2 ch, ~128.00 kbps avg (русский профессиональный многоголосый закадровый перевод) - НТВ+
Аудио 2: 48 kHz, MPEG Layer 3, 2 ch, ~128.00 kbps avg (английская оригинальная дорожка, лежит отдельно)
Как подключить альтернативную (внешнюю) звуковую дорожку к видео при просмотре?
Как добавить отдельно лежащую аудиодорожку в .avi - файл? (см. "Программы для работы с контейнерами" - > "VirtualDub" или "AVI-Mux")

MediaInfo

AVI-файл:GeneralComplete name : ... \Eight on the Lam 1967 700MB\Eight on the Lam 1967.aviFormat : AVIFormat/Info : Audio Video InterleaveFile size : 699 MiBDuration : 1h 43mnOverall bit rate : 948 KbpsWriting application : VirtualDubMod 1.5.10.3 | www.virtualdub-fr.org || (build 2550/release)Writing library : VirtualDubMod build 2550/release
VideoID : 0Format : MPEG-4 VisualFormat profile : Advanced Simple@L5Format settings, BVOP : 2Format settings, QPel : NoFormat settings, GMC : No warppointsFormat settings, Matrix : Default (H.263)Codec ID : DX50Codec ID/Hint : DivX 5Duration : 1h 43mnBit rate : 810 KbpsWidth : 512 pixelsHeight : 320 pixelsDisplay aspect ratio : 16:10Frame rate : 25.000 fpsColor space : YUVChroma subsampling : 4:2:0Bit depth : 8 bitsScan type : ProgressiveCompression mode : LossyBits/(Pixel*Frame) : 0.198Stream size : 598 MiB (85%)Writing library : XviD 73
AudioID : 1Format : MPEG AudioFormat version : Version 1Format profile : Layer 3Codec ID : 55Codec ID/Hint : MP3Duration : 1h 43mnBit rate mode : ConstantBit rate : 128 KbpsChannel(s) : 2 channelsSampling rate : 48.0 KHzCompression mode : LossyStream size : 94.5 MiB (14%)Alignment : Aligned on interleavesInterleave, duration : 40 ms (1.00 video frame)Interleave, preload duration : 504 msWriting library : LAME3.99rEncoding settings : -m s -V 4 -q 0 -lowpass 17 -b 128
английская оригинальная дорожка, лежит отдельно:GeneralComplete name : ... \Eight on the Lam 1967 700MB\Eight on the Lam 1967.ENG.mp3Format : MPEG AudioFile size : 94.5 MiBDuration : 1h 43mnOverall bit rate mode : ConstantOverall bit rate : 128 KbpsWriting library : LAME3.99r
AudioFormat : MPEG AudioFormat version : Version 1Format profile : Layer 3Duration : 1h 43mnBit rate mode : ConstantBit rate : 128 KbpsChannel(s) : 2 channelsSampling rate : 48.0 KHzCompression mode : LossyStream size : 94.5 MiB (100%)Writing library : LAME3.99rEncoding settings : -m s -V 4 -q 0 -lowpass 17 -b 128

Скриншоты



[torrentc.info]_t_5559574.torrent
Торрент: Зарегистрирован ·  [ 2018-05-09 23:52 ] ·  cb7fe57410568596a6b63c32e74f59e6abe618be

16 KB

Статус: проверено
Скачан: 0 раз
Размер: 794 MB
Оценка: 
(Голосов: 0)
Сказали спасибо: 0  Спасибо
Похожие темы
[Профиль]    [ЛС]
Показать сообщения:    
Ответить на тему

Текущее время: Сегодня 01:21

Часовой пояс: GMT + 7



Вы не можете начинать темы
Вы не можете отвечать на сообщения
Вы не можете редактировать свои сообщения
Вы не можете удалять свои сообщения
Вы не можете голосовать в опросах
Вы не можете прикреплять файлы к сообщениям
Вы можете скачивать файлы