Белокурая грешница / Покаяние / На пороге тьмы / Yield to the Night (Дж. Ли Томпсон / J. Lee Thompson) [1956, Великобритания, драма, DVDRip] VO (minyaev) + Sub Rus, Eng + Original Eng

Ответить на тему
Статистика раздачи [Обновить пиров]
Размер:  1.46 GB   |    Зарегистрирован:  3 месяца 8 дней   |    Скачан:  0 раз

Полного источника не было: Никогда

 
   
 
 
 
Автор Сообщение

torrentc.info

Создавать темы 09-Май-2018 01:03

[Цитировать]

Белокурая грешница / Покаяние / На пороге тьмы / Yield to the Night
Страна: Великобритания
Жанр: драма
Год выхода: 1956
Продолжительность: 01:35:20
Перевод: Одноголосый закадровый - minyaev
Субтитры: русские (minyaev), английские SDH
Оригинальная аудиодорожка: английский

Режиссер: Дж. Ли Томпсон / J. Lee Thompson
В ролях: Диана Дорс, Ивонн Митчелл, Майкл Крэйг, Мари Ней, Джефри Кин, Лайам Редмонд, Ольга Линдо, Джоан Миллер, Марджори Роудс, Молли Уркухарт
Описание: Мэри Хилтон оказывается в камере смертниц за умышленное убийство. Ей даны две недели на ожидание возможного помилования, в ходе которых она вспоминает историю, приведшую её к осуждению. Дни один за другим вычёркиваются из календаря, и всё шире распахиваются двери человеческого ужаса и страха перед лицом смерти.
Сэмпл
Качество видео: DVDRip
Формат файла: AVI
Видео: 624x480 (1.30:1), 25 fps, XviD build 73 ~1790 kbps avg, 0.24 bit/pixel
Аудио: 48 kHz, AC3 Dolby Digital, 2/0 (L,R) ch, ~192 kbps - одноголосый
Аудио: 48 kHz, AC3 Dolby Digital, 2/0 (L,R) ch, ~192 kbps - оригинал

MediaInfo

GeneralComplete name : H:\Yield.To.The.Night.1956.DVDRip_[1.46]_[teko]\Yield.To.The.Night.1956.DVDRip_[1.46].aviFormat : AVIFormat/Info : Audio Video InterleaveFile size : 1.46 GiBDuration : 1h 35mnOverall bit rate : 2 190 KbpsWriting application : VirtualDubMod 1.5.10.3 | www.virtualdub-fr.org || (build 2550/release)Writing library : VirtualDubMod build 2550/release
VideoID : 0Format : MPEG-4 VisualFormat profile : Advanced Simple@L5Format settings, BVOP : 2Format settings, QPel : NoFormat settings, GMC : No warppointsFormat settings, Matrix : CustomCodec ID : XVIDCodec ID/Hint : XviDDuration : 1h 35mnBit rate : 1 792 KbpsWidth : 624 pixelsHeight : 480 pixelsDisplay aspect ratio : 4:3Frame rate : 25.000 fpsColor space : YUVChroma subsampling : 4:2:0Bit depth : 8 bitsScan type : ProgressiveCompression mode : LossyBits/(Pixel*Frame) : 0.239Stream size : 1.19 GiB (82%)Writing library : XviD 73
Audio #1ID : 1Format : AC-3Format/Info : Audio Coding 3Mode extension : CM (complete main)Format settings, Endianness : BigCodec ID : 2000Duration : 1h 35mnBit rate mode : ConstantBit rate : 192 KbpsChannel(s) : 2 channelsChannel positions : Front: L RSampling rate : 48.0 KHzFrame rate : 31.250 fps (1536 spf)Compression mode : LossyStream size : 131 MiB (9%)Alignment : Split accross interleavesInterleave, duration : 40 ms (1.00 video frame)Interleave, preload duratio : 500 ms
Audio #2ID : 2Format : AC-3Format/Info : Audio Coding 3Mode extension : CM (complete main)Format settings, Endianness : BigCodec ID : 2000Duration : 1h 35mnBit rate mode : ConstantBit rate : 192 KbpsChannel(s) : 2 channelsChannel positions : Front: L RSampling rate : 48.0 KHzFrame rate : 31.250 fps (1536 spf)Compression mode : LossyStream size : 131 MiB (9%)Alignment : Split accross interleavesInterleave, duration : 40 ms (1.00 video frame)Interleave, preload duratio : 500 ms

Скриншоты

:--


[torrentc.info]_t_5559212.torrent
Торрент: Зарегистрирован ·  [ 2018-05-09 01:03 ] ·  1cb8e857276419f32a0b41adfa427c3852a66e8a

15 KB

Статус: проверено
Скачан: 0 раз
Размер: 1.46 GB
Оценка: 
(Голосов: 0)
Сказали спасибо: 0  Спасибо
Похожие темы
[Профиль]    [ЛС]
Показать сообщения:    
Ответить на тему

Текущее время: Сегодня 10:22

Часовой пояс: GMT + 7



Вы не можете начинать темы
Вы не можете отвечать на сообщения
Вы не можете редактировать свои сообщения
Вы не можете удалять свои сообщения
Вы не можете голосовать в опросах
Вы не можете прикреплять файлы к сообщениям
Вы можете скачивать файлы