Голубая лампа / Синий фонарь / The Blue Lamp (Базил Дирден / Basil Dearden) [1950, Великобритания, драма, DVDRip] AVO (Медведев) + Original Eng

Ответить на тему
Статистика раздачи [Обновить пиров]
Размер:  1.46 GB   |    Зарегистрирован:  1 месяц 15 дней   |    Скачан:  0 раз

Полного источника не было: Никогда

 
   
 
 
 
Автор Сообщение

torrentc.info

Создавать темы 09-Май-2018 00:00

[Цитировать]

Голубая лампа / Синий фонарь / The Blue Lamp

Страна: Великобритания
Жанр: драма
Год выхода: 1950
Продолжительность: 01:20:47
Перевод: Авторский (одноголосый закадровый) - Алексей Медведев
Субтитры: нет
Оригинальная аудиодорожка: английский

Режиссер: Базил Дирден / Basil Dearden
В ролях: Джек Уорнер, Джимми Хэнли, Дирк Богард, Роберт Флеминг, Бернард Ли, Пегги Эванс, Патрик Дунэн, Брюс Сетон, Мередит Эдвардс, Клайв Мортон
Описание: Всего несколько лет после окончания Второй мировой. Улицы Лондона оберегают «бобби», знающие каждого преступника в лицо. Но уже подрастает новое поколение бандитов, с другим взглядом на жизнь и преступления. Один из патрульных оказывается смертельно ранен при ограблении.
Сэмпл
Качество видео: DVDRip
Формат файла: AVI
Видео: 640x480 (1.33:1), 25 fps, XviD build 73 ~2180 kbps avg, 0.28 bit/pixel
Аудио: 48 kHz, AC3 Dolby Digital, 2/0 (L,R) ch, ~192 kbps - авторский
Аудио: 48 kHz, AC3 Dolby Digital, 2/0 (L,R) ch, ~192 kbps - оригинал

MediaInfo

GeneralComplete name : H:\The.Blue.Lamp.1950.DVDRip_[1.46]_[teko].aviFormat : AVIFormat/Info : Audio Video InterleaveFile size : 1.46 GiBDuration : 1h 20mnOverall bit rate : 2 580 KbpsWriting application : VirtualDubMod 1.5.10.3 | www.virtualdub-fr.org || (build 2550/release)Writing library : VirtualDubMod build 2550/release
VideoID : 0Format : MPEG-4 VisualFormat profile : Advanced Simple@L5Format settings, BVOP : 2Format settings, QPel : NoFormat settings, GMC : No warppointsFormat settings, Matrix : CustomCodec ID : XVIDCodec ID/Hint : XviDDuration : 1h 20mnBit rate : 2 182 KbpsWidth : 640 pixelsHeight : 480 pixelsDisplay aspect ratio : 4:3Frame rate : 25.000 fpsColor space : YUVChroma subsampling : 4:2:0Bit depth : 8 bitsScan type : ProgressiveCompression mode : LossyBits/(Pixel*Frame) : 0.284Stream size : 1.23 GiB (85%)Writing library : XviD 73
Audio #1ID : 1Format : AC-3Format/Info : Audio Coding 3Mode extension : CM (complete main)Format settings, Endianness : BigCodec ID : 2000Duration : 1h 20mnBit rate mode : ConstantBit rate : 192 KbpsChannel(s) : 2 channelsChannel positions : Front: L RSampling rate : 48.0 KHzFrame rate : 31.250 fps (1536 spf)Compression mode : LossyStream size : 111 MiB (7%)Alignment : Split accross interleavesInterleave, duration : 40 ms (1.00 video frame)Interleave, preload duratio : 500 ms
Audio #2ID : 2Format : AC-3Format/Info : Audio Coding 3Mode extension : CM (complete main)Format settings, Endianness : BigCodec ID : 2000Duration : 1h 20mnBit rate mode : ConstantBit rate : 192 KbpsChannel(s) : 2 channelsChannel positions : Front: L RSampling rate : 48.0 KHzFrame rate : 31.250 fps (1536 spf)Compression mode : LossyStream size : 111 MiB (7%)Alignment : Split accross interleavesInterleave, duration : 40 ms (1.00 video frame)Interleave, preload duratio : 500 ms

Скриншоты

:--


[torrentc.info]_t_5559127.torrent
Торрент: Зарегистрирован ·  [ 2018-05-09 00:00 ] ·  f929d6900eb9f4abbb46c64bb4d9049c846a20d9

15 KB

Статус: проверено
Скачан: 0 раз
Размер: 1.46 GB
Оценка: 
(Голосов: 0)
Сказали спасибо: 0  Спасибо
Похожие темы
[Профиль]    [ЛС]
Показать сообщения:    
Ответить на тему

Текущее время: Сегодня 00:33

Часовой пояс: GMT + 7



Вы не можете начинать темы
Вы не можете отвечать на сообщения
Вы не можете редактировать свои сообщения
Вы не можете удалять свои сообщения
Вы не можете голосовать в опросах
Вы не можете прикреплять файлы к сообщениям
Вы можете скачивать файлы