Женщина в бегах / Woman on the Run (Норман Фостер / Norman Foster) [1950, США, криминал, драма, фильм нуар, триллер, BDRip] VO (Яковлев) + Sub Eng + Original Eng

Ответить на тему
Статистика раздачи [Обновить пиров]
Размер:  1.46 GB   |    Зарегистрирован:  3 месяца 8 дней   |    Скачан:  0 раз

Полного источника не было: Никогда

 
   
 
 
 
Автор Сообщение

torrentc.info

Создавать темы 09-Май-2018 00:00

[Цитировать]

Женщина в бегах / Woman on the Run
Страна: США
Жанр: криминал, драма, фильм нуар, триллер
Год выхода: 1950
Продолжительность: 01:18:07
Перевод: Одноголосый закадровый - Алексей Яковлев
Субтитры: английские
Оригинальная аудиодорожка: английский

Режиссер: Норман Фостер / Norman Foster
В ролях: Энн Шеридан, Деннис О’Кифи, Роберт Кит, Джон Кволен, Фрэнк Дженкс, Росс Эллиотт, Джейн Лиделл, Джоан Шоули, Дж. Фаррелл МакДональд, Стивен Герэй, Виктор Сен Юнг, Рейко Сато, Сид Сэйлор, Том Диллон, Майк Донован, Франклин Фэрнум, Милтон Кибби
Описание: Сан-Франциско. Однажды вечером, выгуливая собаку, Фрэнк Джонсон становится невольным свидетелем убийства гангстером человека. Убийца также замечает Фрэнка и стреляет, но промахивается.
Прибывшая полиция говорит Фрэнку, что теперь убийца будет за ним охотиться. Но Фрэнк не решается довериться полиции и войти в программу защиты свидетелей. Он решает на время убежать и спрятаться. По его следу идет инспектор полиции Феррис, считающий Фрэнка отличным свидетелем.
Жена Фрэнка Элеанора, тем временем, думает, что Фрэнк просто убежал от их неудачной семейной жизни…

Сэмпл
Качество видео: BDRip
Формат файла: AVI
Видео: 640x480 (1.33:1), 23.976 fps, XviD build 73 ~2268 kbps avg, 0.31 bit/pixel
Аудио: 48 kHz, AC3 Dolby Digital, 2/0 (L,R) ch, ~192 kbps - одноголосый
Аудио: 48 kHz, AC3 Dolby Digital, 2/0 (L,R) ch, ~192 kbps - оригинал
Формат файла субтитров: softsub (SRT)

MediaInfo

GeneralComplete name : H:\Woman.on.the.Run.1950.bdrip_[1.46]_[teko]\Woman.on.the.Run.1950.bdrip_[1.46].aviFormat : AVIFormat/Info : Audio Video InterleaveFile size : 1.45 GiBDuration : 1h 18mnOverall bit rate : 2 667 KbpsWriting application : VirtualDubMod 1.5.10.3 | www.virtualdub-fr.org || (build 2550/release)Writing library : VirtualDubMod build 2550/release
VideoID : 0Format : MPEG-4 VisualFormat profile : Advanced Simple@L5Format settings, BVOP : 2Format settings, QPel : NoFormat settings, GMC : No warppointsFormat settings, Matrix : CustomCodec ID : XVIDCodec ID/Hint : XviDDuration : 1h 18mnBit rate : 2 268 KbpsWidth : 640 pixelsHeight : 480 pixelsDisplay aspect ratio : 4:3Frame rate : 23.976 (23976/1000) fpsColor space : YUVChroma subsampling : 4:2:0Bit depth : 8 bitsScan type : ProgressiveCompression mode : LossyBits/(Pixel*Frame) : 0.308Stream size : 1.24 GiB (85%)Writing library : XviD 73
Audio #1ID : 1Format : AC-3Format/Info : Audio Coding 3Mode extension : CM (complete main)Format settings, Endianness : BigCodec ID : 2000Duration : 1h 18mnBit rate mode : ConstantBit rate : 192 KbpsChannel(s) : 1 channelChannel positions : Front: CSampling rate : 48.0 KHzFrame rate : 31.250 fps (1536 spf)Compression mode : LossyStream size : 107 MiB (7%)Alignment : Split accross interleavesInterleave, duration : 42 ms (1.00 video frame)Interleave, preload duratio : 500 ms
Audio #2ID : 2Format : AC-3Format/Info : Audio Coding 3Mode extension : CM (complete main)Format settings, Endianness : BigCodec ID : 2000Duration : 1h 18mnBit rate mode : ConstantBit rate : 192 KbpsChannel(s) : 2 channelsChannel positions : Front: L RSampling rate : 48.0 KHzFrame rate : 31.250 fps (1536 spf)Compression mode : LossyStream size : 107 MiB (7%)Alignment : Split accross interleavesInterleave, duration : 42 ms (1.00 video frame)Interleave, preload duratio : 500 ms

Скриншоты

:--


[torrentc.info]_t_5559197.torrent
Торрент: Зарегистрирован ·  [ 2018-05-09 00:00 ] ·  f7f0b517182e6240e3e0b403b8d98f9d4e7bdc99

15 KB

Статус: проверено
Скачан: 0 раз
Размер: 1.46 GB
Оценка: 
(Голосов: 0)
Сказали спасибо: 0  Спасибо
Похожие темы
[Профиль]    [ЛС]
Показать сообщения:    
Ответить на тему

Текущее время: Сегодня 10:19

Часовой пояс: GMT + 7



Вы не можете начинать темы
Вы не можете отвечать на сообщения
Вы не можете редактировать свои сообщения
Вы не можете удалять свои сообщения
Вы не можете голосовать в опросах
Вы не можете прикреплять файлы к сообщениям
Вы можете скачивать файлы