Наш человек в Гаване / Our Man in Havana (Кэрол Рид / Carol Reed) [1959, Великобритания, комедия, драма, политическая сатира, BDRip] DVO + Sub Eng + Original Eng

Ответить на тему
Статистика раздачи [Обновить пиров]
Размер:  1.46 GB   |    Зарегистрирован:  5 месяцев 9 дней   |    Скачан:  1 раз
Сидеров:  1  [  0 KB/s  ]   Подробная статистика скачивающих
 
   
 
 
 
Автор Сообщение

torrentc.info

Создавать темы 08-Май-2018 21:50

[Цитировать]

Наш человек в Гаване / Our Man in Havana
Страна: Великобритания
Жанр: комедия, драма, политическая сатира
Год выхода: 1959
Продолжительность: 01:47:18
Перевод: Профессиональный (двухголосый закадровый)
Субтитры: английские
Оригинальная аудиодорожка: английский

Режиссер: Кэрол Рид / Carol Reed
В ролях: Алек Гиннесс, Берл Айвз, Морин О’Хара, Эрни Ковач, Ноэл Коуард, Ральф Ричардсон, Джо Морроу, Грегуар Аслан, Пол Роджерс, Рэймонд Хантли, Ферди Мэйн, Морис Денэм, Джозеф П. Маура, Дункан МакРэй, Хью Мэннинг
Описание: Экранизация одноименного романа классика современной английской литературы Грэма Грина.
Интересы различных иностранных спецслужб столкнулись в Карибском бассейне. Чтобы выплатить долги, которые наделала 17-летняя дочь продавца пылесосов в Гаване, герой принимает предложение стать агентом британской разведки на Кубе. Поскольку на самом деле ему не о чем сообщить, то он придумывает факты, делает вид, что вербует агентов и "обнаруживает" секретные сооружения. Но однажды авантюра превращается в драму...

Сэмпл
Качество видео: BDRip
Формат файла: AVI
Видео: 720x304 (2.37:1), 23.976 fps, XviD build 73 ~1550 kbps avg, 0.29 bit/pixel
Аудио: 48 kHz, AC3 Dolby Digital, 2/0 (L,R) ch, ~192 kbps - двухголосый
Аудио: 48 kHz, AC3 Dolby Digital, 2/0 (L,R) ch, ~192 kbps - оригинал
Формат файла субтитров: softsub (SRT)

Источник: Torrentc

http://Torrentc/forum/viewtopic.php?t=1849691

MediaInfo

GeneralComplete name : H:\Our.Man.in.Havana.1959.bdrip_[1.46]_[teko]\Our.Man.in.Havana.1959.bdrip_[1.46].aviFormat : AVIFormat/Info : Audio Video InterleaveFile size : 1.46 GiBDuration : 1h 47mnOverall bit rate : 1 949 KbpsWriting application : VirtualDubMod 1.5.10.3 | www.virtualdub-fr.org || (build 2550/release)Writing library : VirtualDubMod build 2550/release
VideoID : 0Format : MPEG-4 VisualFormat profile : Advanced Simple@L5Format settings, BVOP : 2Format settings, QPel : NoFormat settings, GMC : No warppointsFormat settings, Matrix : CustomCodec ID : XVIDCodec ID/Hint : XviDDuration : 1h 47mnBit rate : 1 551 KbpsWidth : 720 pixelsHeight : 304 pixelsDisplay aspect ratio : 2.35:1Frame rate : 23.976 (23976/1000) fpsColor space : YUVChroma subsampling : 4:2:0Bit depth : 8 bitsScan type : ProgressiveCompression mode : LossyBits/(Pixel*Frame) : 0.296Stream size : 1.16 GiB (80%)Writing library : XviD 73
Audio #1ID : 1Format : AC-3Format/Info : Audio Coding 3Mode extension : CM (complete main)Format settings, Endianness : BigCodec ID : 2000Duration : 1h 47mnBit rate mode : ConstantBit rate : 192 KbpsChannel(s) : 2 channelsChannel positions : Front: L RSampling rate : 48.0 KHzFrame rate : 31.250 fps (1536 spf)Compression mode : LossyStream size : 147 MiB (10%)Alignment : Split accross interleavesInterleave, duration : 42 ms (1.00 video frame)Interleave, preload duratio : 500 ms
Audio #2ID : 2Format : AC-3Format/Info : Audio Coding 3Mode extension : CM (complete main)Format settings, Endianness : BigCodec ID : 2000Duration : 1h 47mnBit rate mode : ConstantBit rate : 192 KbpsChannel(s) : 2 channelsChannel positions : Front: L RSampling rate : 48.0 KHzFrame rate : 31.250 fps (1536 spf)Compression mode : LossyStream size : 147 MiB (10%)Alignment : Split accross interleavesInterleave, duration : 42 ms (1.00 video frame)Interleave, preload duratio : 500 ms
:--


[torrentc.info]_t_5559116.torrent
Торрент: Зарегистрирован ·  [ 2018-05-08 21:50 ] ·  f2fc615ac7b8210ce5e10196438f0102a7fbb443

15 KB

Статус: проверено
Скачан: 1 раз
Размер: 1.46 GB
Оценка: 
(Голосов: 0)
Сказали спасибо: 0  Спасибо
Похожие темы
[Профиль]    [ЛС]
Показать сообщения:    
Ответить на тему

Текущее время: Сегодня 02:03

Часовой пояс: GMT + 7



Вы не можете начинать темы
Вы не можете отвечать на сообщения
Вы не можете редактировать свои сообщения
Вы не можете удалять свои сообщения
Вы не можете голосовать в опросах
Вы не можете прикреплять файлы к сообщениям
Вы можете скачивать файлы