(Free Improvisation, Experimental Rock, Avant Folk, l. Erstwhile Records) [CD] Haunted House (Suzanne Langille / Loren MazzaCane Connors / Neel Murgai / Andrew Burnes) - Up in Flames - 1999, FLAC (tracks+.cue), lossless

Ответить на тему
Статистика раздачи [Обновить пиров]
Размер:  241 MB   |    Зарегистрирован:  5 месяцев 10 дней   |    Скачан:  0 раз

Полного источника не было: Никогда

 
   
 
 
 
Автор Сообщение

torrentc.info

Создавать темы 07-Май-2018 23:06

[Цитировать]

Haunted House — "Up in Flames" — 1999
____________________________________________________

ЛЭЙБЛ: Erstwhile Records (USA) | Erstwhile 002
ЖАНР: Free Improvisation | Experimental Rock
СТРАНА: United States (New York, NY)
ИСТОЧНИК: redacted.ch
ТИП РИПА: tracks+.cue
КОДЕК: FLAC (*.flac)
БИТРЕЙТ: lossless
ФОРМАТ: CD | Album
.
track listing
01. Been So Long (23:03)
02. Only When You Sleep (10:28)
03. Blue Ghost Blues (23:09)

total length (00:56:39)
.
credits
Loren MazzaCane Connors: guitar
Suzanne Langille: vocals
Andrew Burnes: guitar
Neel Murgai: persian daf

—l o g

Exact Audio Copy V1.3 from 2. September 2016
EAC extraction logfile from 19. December 2016, 23:58
Haunted House / Up in Flames
Used drive : PLDS DVD-RW DS8A8SH Adapter: 1 ID: 0
Read mode : SecureUtilize accurate stream : YesDefeat audio cache : YesMake use of C2 pointers : No
Read offset correction : 6Overread into Lead-In and Lead-Out : NoFill up missing offset samples with silence : YesDelete leading and trailing silent blocks : NoNull samples used in CRC calculations : YesUsed interface : Native Win32 interface for Win NT & 2000Gap handling : Appended to previous track
Used output format : User Defined EncoderSelected bitrate : 1024 kBit/sQuality : HighAdd ID3 tag : NoCommand line compressor : C:\Program Files\Exact Audio Copy\FLAC\FLAC.EXEAdditional command line options : -8 -e -p -V -T "ARTIST=%artist%" -T "TITLE=%title%" -T "ALBUM=%albumtitle%" -T "DATE=%year%" -T "TRACKNUMBER=%tracknr%" -T "GENRE=%genre%" -T "PERFORMER=%albuminterpret%" -T "COMPOSER=%composer%" %haslyrics%--tag-from-file=LYRICS="%lyricsfile%"%haslyrics% -T "ALBUMARTIST=%albumartist%" -T "DISCNUMBER=%cdnumber%" -T "TOTALDISCS=%totalcds%" -T "TOTALTRACKS=%numtracks%" -T "COMMENT=%comment%" %source% -o %dest%
TOC of the extracted CD
Track | Start | Length | Start sector | End sector --------------------------------------------------------- 1 | 0:00.00 | 23:02.31 | 0 | 103680 2 | 23:02.31 | 10:27.35 | 103681 | 150740 3 | 33:29.66 | 23:08.12 | 150741 | 254852
Track 1
Filename C:\EAC Rips\Haunted House - Up in Flames (1999) [FLAC]\01 - Been So Long.wav
Pre-gap length 0:00:02.00
Peak level 100.0 % Extraction speed 2.9 X Track quality 99.9 % Test CRC 7821D971 Copy CRC 7821D971 Accurately ripped (confidence 1) [1586E36A] (AR v2) Copy OK
Track 2
Filename C:\EAC Rips\Haunted House - Up in Flames (1999) [FLAC]\02 - Only When You Sleep.wav
Pre-gap length 0:00:02.00
Peak level 74.5 % Extraction speed 3.5 X Track quality 99.9 % Test CRC B7FC034E Copy CRC B7FC034E Accurately ripped (confidence 1) [633668BD] (AR v2) Copy OK
Track 3
Filename C:\EAC Rips\Haunted House - Up in Flames (1999) [FLAC]\03 - Blue Ghost Blues.wav
Pre-gap length 0:00:02.00
Peak level 100.0 % Extraction speed 4.6 X Track quality 100.0 % Test CRC BA9A10F7 Copy CRC BA9A10F7 Accurately ripped (confidence 1) [B4C14748] (AR v2) Copy OK
All tracks accurately ripped
No errors occurred
End of status report
==== Log checksum F3A965C3D226590B997DCEEA0CFA362195F65C56A1FDF19FF9530B8F483BC5D7 ====

.c u e

REM GENRE "Free Improvisation"REM DATE 1999REM DISCID 160D4603REM COMMENT "ExactAudioCopy v1.3"PERFORMER "Haunted House"TITLE "Up in Flames"FILE "01. Been So Long.wav" WAVE TRACK 01 AUDIO TITLE "Been So Long" PERFORMER "Haunted House" INDEX 01 00:00:00 TRACK 02 AUDIO TITLE "Only When You Sleep" PERFORMER "Haunted House" INDEX 00 23:00:31FILE "02. Only When You Sleep.wav" WAVE INDEX 01 00:00:00 TRACK 03 AUDIO TITLE "Blue Ghost Blues" PERFORMER "Haunted House" INDEX 00 10:25:35FILE "03. Blue Ghost Blues.wav" WAVE INDEX 01 00:00:00


[torrentc.info]_t_5555918.torrent
Торрент: Зарегистрирован ·  [ 2018-05-07 23:04 ] ·  bd1d7b9cea34715ff73fd00c01faae8ec426f3da

20 KB

Статус: проверено
Скачан: 0 раз
Размер: 241 MB
Оценка: 
(Голосов: 0)
Сказали спасибо: 0  Спасибо
Похожие темы
[Профиль]    [ЛС]
Показать сообщения:    
Ответить на тему

Текущее время: Сегодня 23:02

Часовой пояс: GMT + 7



Вы не можете начинать темы
Вы не можете отвечать на сообщения
Вы не можете редактировать свои сообщения
Вы не можете удалять свои сообщения
Вы не можете голосовать в опросах
Вы не можете прикреплять файлы к сообщениям
Вы можете скачивать файлы