(Avant-Prog/Space Rock/Jazz Rock/Fusion/Zeuhl) [WEB] Espiral - Love From Melmac - 2017, FLAC (tracks), lossless

Ответить на тему
Статистика раздачи [Обновить пиров]
Размер:  345 MB   |    Зарегистрирован:  7 месяцев 2 дня   |    Скачан:  0 раз

Полного источника не было: Никогда

 
   
 
 
 
Автор Сообщение

torrentc.info

Создавать темы 07-Май-2018 23:06

[Цитировать]

Espiral / Love From Melmac
Жанр: Avant-Prog/Space Rock/Jazz Rock/Fusion/Zeuhl
Носитель: WEB
Год издания: 2017
Страна исполнителя (группы): Chile
Аудиокодек: FLAC (*.flac)
Тип рипа: tracks
Битрейт аудио: lossless
Продолжительность: 51:48
Источник (релизер): Bandcamp
Наличие сканов в содержимом раздачи: да

01. Delta 9 [00:05:31]
02. Miami System [00:04:43]
03. Lluvia [00:06:56]
04. Autoflorecientes [00:07:06]
05. Space On [00:06:50]
06. Tunguska [00:04:05]
07. Kiltro Solitario [00:04:10]
08. Oreja [00:04:29]
09. Cuarta Órbita [00:07:54]
Released July 29, 2017--

Состав

Cristian "Joven Billy" Hidalgo - Drums
Jose Luis Cayul - Guitar
Ignacio Larrain - Bass, Saxophone
Miguel Ángel Rodríguez - Keyboards

Лог проверки качества

-----------------------
DON'T MODIFY THIS FILE
-----------------------
PERFORMER: auCDtect Task Manager, ver. 1.6.0 RC1 build 1.6.0.1Copyright (c) 2008-2010 y-soft. All rights reservedhttp://y-soft.org
ANALYZER: auCDtect: CD records authenticity detector, version 0.8.2Copyright (c) 2004 Oleg Berngardt. All rights reserved.Copyright (c) 2004 Alexander Djourik. All rights reserved.
FILE: Espiral - Love From Melmac - 09 Cuarta Órbita.flac Size: 49164668 Hash: 80EFB58ABF1621EB9EA628255D446792 Accuracy: -m0 Conclusion: CDDA 100% Signature: CEDDCE527257FFE343873F7B7620E86ECBBDBDE5FILE: Espiral - Love From Melmac - 08 Oreja.flac Size: 30790258 Hash: B4BC7F4024217A34A35DE7814D838443 Accuracy: -m0 Conclusion: CDDA 100% Signature: A7E4398B11459145B14C9C261C841C21F879A5BDFILE: Espiral - Love From Melmac - 07 Kiltro Solitario.flac Size: 30340428 Hash: 96AA3AEDE0929BD0945BDA344A3EC6DF Accuracy: -m0 Conclusion: CDDA 100% Signature: 3B5625238A33349FE929439EE51D97457249DD97FILE: Espiral - Love From Melmac - 06 Tunguska.flac Size: 30731479 Hash: 4FD43C2EB16449E7ECB9F1045C7C7905 Accuracy: -m0 Conclusion: CDDA 100% Signature: 16FF2972E73C9FB27FDF3B6AF9399CFA115D3570FILE: Espiral - Love From Melmac - 05 Space On.flac Size: 51508129 Hash: 634CEB95D4945A3E9CF8C34AF2B6DE9E Accuracy: -m0 Conclusion: CDDA 99% Signature: F823EA7EA3BFD1A3FC25407ECA63A6972850799AFILE: Espiral - Love From Melmac - 04 Autoflorecientes.flac Size: 50167452 Hash: 24C2A8ADCE51ED39024B049D5A20BA3E Accuracy: -m0 Conclusion: CDDA 100% Signature: 15A7B5D857E6537AF5351B15A90F71555809BA36FILE: Espiral - Love From Melmac - 03 Lluvia.flac Size: 43811117 Hash: 5D42A869110E5A87EBF9ADA79F5B42BF Accuracy: -m0 Conclusion: CDDA 100% Signature: 7228B91A93DECB95E7E0AEEAB41779AB775D89A1FILE: Espiral - Love From Melmac - 02 Miami System.flac Size: 33161759 Hash: F04F8416B6EB8404A341432EEF01D3D0 Accuracy: -m0 Conclusion: CDDA 100% Signature: 3B4075B8C44261E723F99BCE0E230FB9FDE6804AFILE: Espiral - Love From Melmac - 01 Delta 9.flac Size: 36038973 Hash: 5742E37C608058C678C3196B6D196A84 Accuracy: -m0 Conclusion: CDDA 100% Signature: 71D5796E6C761877206823CC190150C60A836117

DRM log

foobar2000 1.3.12 / Dynamic Range Meter 1.1.1log date: 2018-05-02 15:51:48
--------------------------------------------------------------------------------Analyzed: Espiral / Love From Melmac--------------------------------------------------------------------------------
DR Peak RMS Duration Track--------------------------------------------------------------------------------DR7 0.00 dB -8.55 dB 5:31 01-Delta 9DR7 0.00 dB -9.07 dB 4:44 02-Miami SystemDR8 0.00 dB -11.19 dB 6:56 03-LluviaDR7 0.00 dB -8.66 dB 7:06 04-AutoflorecientesDR7 0.00 dB -8.25 dB 6:50 05-Space OnDR7 0.00 dB -7.88 dB 4:06 06-TunguskaDR6 0.00 dB -8.28 dB 4:10 07-Kiltro SolitarioDR7 0.00 dB -8.49 dB 4:30 08-OrejaDR7 0.00 dB -12.01 dB 7:55 09-Cuarta Órbita--------------------------------------------------------------------------------
Number of tracks: 9Official DR value: DR7
Samplerate: 44100 HzChannels: 2Bits per sample: 16Bitrate: 827 kbpsCodec: FLAC================================================================================
--


[torrentc.info]_t_5556426.torrent
Торрент: Зарегистрирован ·  [ 2018-05-07 23:04 ] ·  c54477567a6878970b60b1c5f34ced3493a1f7f6

15 KB

Статус: проверено
Скачан: 0 раз
Размер: 345 MB
Оценка: 
(Голосов: 0)
Сказали спасибо: 0  Спасибо
Похожие темы
[Профиль]    [ЛС]
Показать сообщения:    
Ответить на тему

Текущее время: Сегодня 18:04

Часовой пояс: GMT + 7



Вы не можете начинать темы
Вы не можете отвечать на сообщения
Вы не можете редактировать свои сообщения
Вы не можете удалять свои сообщения
Вы не можете голосовать в опросах
Вы не можете прикреплять файлы к сообщениям
Вы можете скачивать файлы