[iPhone] Драконий Жемчуг Зет: Фильм первый / Dragon Ball Z Movie 1: Return my Gohan! (Нисио Дайсукэ / Nishio Daisuke) [1989, боевые искусства, приключения, комедия, фэнтези, сёнэн, DVDRip, 480x368]

Ответить на тему
Статистика раздачи [Обновить пиров]
Размер:  408 MB   |    Зарегистрирован:  7 месяцев 3 дня   |    Скачан:  0 раз

Полного источника не было: Никогда

 
   
 
 
 
Автор Сообщение

torrentc.info

Создавать темы 07-Май-2018 23:05

[Цитировать]

Драконий Жемчуг Зет: Фильм первый-
Оригинальное название: ドラゴンボールZ オラの悟飯をかえせッ!!
Английское название: Dragon Ball Z Movie 1: Return my Gohan!-Год выхода:
1989
Страна: Япония
Жанр:боевые искусства, приключения, комедия, фэнтези, сёнэн
Продолжительность: 00:41:15-Перевод : Любительский Одноголосый AnimeBest
Субтитры: -Дата выхода: 15.07.1989-Режиссёр: Нисио Дайсукэ
Студия: -Описание: Гохана похитили! Злобный Гарлик младший собрал семь Драконьих Шаров, чтобы обрести бессмертие. Следующие по списку планы: захват мира и месть всей человеческой расе за смерть своего отца. Гоку мчится спасать Гохана, но достигает крепости врага, когда тот уже вызывает Вечного Дракона. Криллин и Пикколо пытаются помочь Гоку, но их совместные усилия ничто, по сравнению с силой Гарлика младшего, который создает «Мертвую Зону» (черную дыру) чтобы засосать туда наших героев. Внезапно Гохан начинает проявлять свою скрытую силу, но будет ли ее достаточно?- || || || -Качество: DVDRip
Формат файла: *.m4v
Видео кодек: H.264
Аудио кодек: ААС
Разрешение: 480х368
Другие параметры видео: 896 Кбит/сек, 4:3, 23,976 кадр/сек
Аудио : 160 Кбит/сек, 2 канала(ов), 48,0 КГц
Аудио : 160 Кбит/сек, 2 канала(ов), 48,0 КГц
Вшитая обложка: есть
Доп. теги (режиссёр, актёры и т.д.): есть
Телешоу/видеоклип : не требуется
Главы: нет
Серия/сезон:не требуется

MediaInfo

Format                                   : MPEG-4
Format profile                           : Base Media / Version 2
Codec ID                                 : mp42
File size                                : 408 MiB
Duration                                 : 41mn 18s
Overall bit rate mode                    : Variable
Overall bit rate                         : 1 383 Kbps
Genre                                    : Adventure
Recorded date                            : 1989
Encoded date                             : UTC 2012-06-06 14:54:56
Tagged date                              : UTC 2012-07-16 04:23:13
Writing application                      : HandBrake 0.9.6 2012022800
Cover                                    : Yes
iTunMOVI                                 :  /  /  /  /  directors /   /    /    name /    Нисио Дайсукэ /    /   /  /
desc                                     : Гохана похитили! Злобный Гарлик младший собрал семь Драконьих Шаров, чтобы обрести бессмертие. Следующие по списку планы: захват мира и месть всей человеческой расе за смерть своего отца.
ldes                                     : Гохана похитили! Злобный Гарлик младший собрал семь Драконьих Шаров, чтобы обрести бессмертие. Следующие по списку планы: захват мира и месть всей человеческой расе за смерть своего отца. Гоку мчится спасать Гохана, но достигает крепости врага, когда тот уже вызывает Вечного Дракона. Криллин и Пикколо пытаются помочь Гоку, но их совместные усилия ничто, по сравнению с силой Гарлика младшего, который создает «Мертвую Зону» (черную дыру) чтобы засосать туда наших героев. Внезапно Гохан начинает проявлять свою скрытую силу, но будет ли ее достаточно?
stik                                     : 9
Video
ID                                       : 1
Format                                   : AVC
Format/Info                              : Advanced Video Codec
Format profile                           : Baseline@L3.0
Format settings, CABAC                   : No
Format settings, ReFrames                : 4 frames
Codec ID                                 : avc1
Codec ID/Info                            : Advanced Video Coding
Duration                                 : 41mn 18s
Duration_FirstFrame                      : 67ms
Bit rate mode                            : Variable
Bit rate                                 : 896 Kbps
Width                                    : 480 pixels
Height                                   : 368 pixels
Display aspect ratio                     : 4:3
Frame rate mode                          : Constant
Frame rate                               : 29.970 fps
Color space                              : YUV
Chroma subsampling                       : 4:2:0
Bit depth                                : 8 bits
Scan type                                : Progressive
Bits/(Pixel*Frame)                       : 0.169
Stream size                              : 264 MiB (65%)
Writing library                          : x264 core 120
Encoding settings                        : cabac=0 / ref=4 / deblock=1:0:0 / analyse=0x1:0x131 / me=umh / subme=6 / psy=1 / psy_rd=0.00:0.00 / mixed_ref=1 / me_range=16 / chroma_me=1 / trellis=0 / 8x8dct=0 / cqm=0 / deadzone=21,11 / fast_pskip=0 / chroma_qp_offset=0 / threads=6 / sliced_threads=0 / nr=0 / decimate=1 / interlaced=0 / bluray_compat=0 / constrained_intra=0 / bframes=0 / weightp=0 / keyint=300 / keyint_min=30 / scenecut=40 / intra_refresh=0 / rc_lookahead=40 / rc=2pass / mbtree=1 / bitrate=896 / ratetol=1.0 / qcomp=0.60 / qpmin=3 / qpmax=69 / qpstep=4 / cplxblur=20.0 / qblur=0.5 / vbv_maxrate=1500 / vbv_bufsize=2000 / nal_hrd=none / ip_ratio=1.40 / aq=1:1.00
Encoded date                             : UTC 2012-06-06 14:54:56
Tagged date                              : UTC 2012-06-06 15:02:44
Color primaries                          : BT.601-6 525, BT.1358 525, BT.1700 NTSC, SMPTE 170M
Transfer characteristics                 : BT.709-5, BT.1361
Matrix coefficients                      : BT.601-6 525, BT.1358 525, BT.1700 NTSC, SMPTE 170M
Audio #1
ID                                       : 2
Format                                   : AAC
Format/Info                              : Advanced Audio Codec
Format profile                           : LC
Codec ID                                 : 40
Duration                                 : 41mn 18s
Bit rate mode                            : Variable
Bit rate                                 : 160 Kbps
Maximum bit rate                         : 306 Kbps
Channel(s)                               : 2 channels
Channel positions                        : Front: L R
Sampling rate                            : 48.0 KHz
Compression mode                         : Lossy
Stream size                              : 47.2 MiB (12%)
Language                                 : Russian
Encoded date                             : UTC 2012-06-06 14:54:56
Tagged date                              : UTC 2012-06-06 15:02:44
Audio #2
ID                                       : 3
Format                                   : AAC
Format/Info                              : Advanced Audio Codec
Format profile                           : LC
Codec ID                                 : 40
Duration                                 : 41mn 18s
Bit rate mode                            : Variable
Bit rate                                 : 160 Kbps
Maximum bit rate                         : 194 Kbps
Channel(s)                               : 2 channels
Channel positions                        : Front: L R
Sampling rate                            : 48.0 KHz
Compression mode                         : Lossy
Stream size                              : 47.2 MiB (12%)
Language                                 : Japanese
Encoded date                             : UTC 2012-06-06 14:54:56
Tagged date                              : UTC 2012-06-06 15:02:44
Audio #3
ID                                       : 4
Format                                   : AAC
Format/Info                              : Advanced Audio Codec
Format profile                           : LC
Codec ID                                 : 40
Duration                                 : 41mn 18s
Bit rate mode                            : Variable
Bit rate                                 : 160 Kbps
Maximum bit rate                         : 255 Kbps
Channel(s)                               : 2 channels
Channel positions                        : Front: L R
Sampling rate                            : 48.0 KHz
Compression mode                         : Lossy
Stream size                              : 47.2 MiB (12%)
Language                                 : English
Encoded date                             : UTC 2012-06-06 14:54:56
Tagged date                              : UTC 2012-06-06 15:02:44
Text
ID                                       : 5
Format                                   : mp4s
Codec ID                                 : E0
Duration                                 : 41mn 13s
Bit rate mode                            : Variable
Bit rate                                 : 1 677 bps
Maximum bit rate                         : 4 277 Mbps
Stream size                              : 506 KiB (0%)
Language                                 : Russian
Encoded date                             : UTC 2012-06-06 14:54:56
Tagged date                              : UTC 2012-06-06 15:02:44

Скриншоты

- Группы:


[torrentc.info]_t_4126894.torrent
Торрент: Зарегистрирован ·  [ 2018-05-07 23:04 ] ·  1b7d36d9584e9e4e879a1122043e46a4feafedf1

999 B

Статус: проверено
Скачан: 0 раз
Размер: 408 MB
Оценка: 
(Голосов: 0)
Сказали спасибо: 0  Спасибо
Похожие темы
[Профиль]    [ЛС]
Показать сообщения:    
Ответить на тему

Текущее время: Сегодня 16:10

Часовой пояс: GMT + 7



Вы не можете начинать темы
Вы не можете отвечать на сообщения
Вы не можете редактировать свои сообщения
Вы не можете удалять свои сообщения
Вы не можете голосовать в опросах
Вы не можете прикреплять файлы к сообщениям
Вы можете скачивать файлы