Банда с Лавендер Хилл / The Lavender Hill Mob (Чарлз Кричтон / Charles Crichton) [1951, Великобритания, комедия, криминал, HDRip] DVO (РенTV) + Sub Eng + Original Eng

Ответить на тему
Статистика раздачи [Обновить пиров]
Размер:  1.46 GB   |    Зарегистрирован:  3 месяца 8 дней   |    Скачан:  0 раз

Полного источника не было: Никогда

 
   
 
 
 
Автор Сообщение

torrentc.info

Создавать темы 07-Май-2018 00:00

[Цитировать]

Банда с Лавендер Хилл / The Lavender Hill Mob
Страна: Великобритания
Жанр: комедия, криминал
Год выхода: 1951
Продолжительность: 01:21:20
Перевод: Профессиональный (двухголосый закадровый) - РенTV
Субтитры: английские
Оригинальная аудиодорожка: английский

Режиссер: Чарлз Кричтон / Charles Crichton
В ролях: Алек Гиннесс, Стэнли Холлоуэй, Сидни Джеймс, Элфи Бэсс, Марджори Филдинг, Эди Мартин, Джон Салью, Рональд Адам, Артур Хэмблинг, Гибб МакЛафлин
Описание: Ограбление века — вот о чём мечтает перевозчик золотых слитков с мягкими манерами, вылитый божий агнец, потаённые мысли которого нездоровы, как у всех бледных поганок… После 20 лет безупречной службы он вдруг решает украсть золота на миллион фунтов стерлингов…
Сэмпл
Качество видео: HDRip
Формат файла: AVI
Видео: 640x480 (1.33:1), 24 fps, XviD build 73 ~2165 kbps avg, 0.29 bit/pixel
Аудио: 48 kHz, AC3 Dolby Digital, 2/0 (L,R) ch, ~192 kbps - двухголосый
Аудио: 48 kHz, AC3 Dolby Digital, 2/0 (L,R) ch, ~192 kbps - оригинал
Формат файла субтитров: softsub (SRT)

Источник: Torrentc

http://Torrentc/forum/viewtopic.php?t=2281471

MediaInfo

GeneralComplete name : H:\The.Lavender.Hill.Mob.1951.hdrip_[1.46]_[teko]\The.Lavender.Hill.Mob.1951.hdrip_[1.46].aviFormat : AVIFormat/Info : Audio Video InterleaveFile size : 1.46 GiBDuration : 1h 21mnOverall bit rate : 2 563 KbpsWriting application : VirtualDubMod 1.5.10.3 | www.virtualdub-fr.org || (build 2550/release)Writing library : VirtualDubMod build 2550/release
VideoID : 0Format : MPEG-4 VisualFormat profile : Advanced Simple@L5Format settings, BVOP : 2Format settings, QPel : NoFormat settings, GMC : No warppointsFormat settings, Matrix : CustomCodec ID : XVIDCodec ID/Hint : XviDDuration : 1h 21mnBit rate : 2 166 KbpsWidth : 640 pixelsHeight : 480 pixelsDisplay aspect ratio : 4:3Frame rate : 24.000 fpsColor space : YUVChroma subsampling : 4:2:0Bit depth : 8 bitsScan type : ProgressiveCompression mode : LossyBits/(Pixel*Frame) : 0.294Stream size : 1.23 GiB (84%)Writing library : XviD 73
Audio #1ID : 1Format : AC-3Format/Info : Audio Coding 3Mode extension : CM (complete main)Format settings, Endianness : BigCodec ID : 2000Duration : 1h 21mnBit rate mode : ConstantBit rate : 192 KbpsChannel(s) : 2 channelsChannel positions : Front: L RSampling rate : 48.0 KHzFrame rate : 31.250 fps (1536 spf)Compression mode : LossyStream size : 112 MiB (7%)Alignment : Split accross interleavesInterleave, duration : 42 ms (1.00 video frame)Interleave, preload duratio : 500 ms
Audio #2ID : 2Format : AC-3Format/Info : Audio Coding 3Mode extension : CM (complete main)Format settings, Endianness : BigCodec ID : 2000Duration : 1h 21mnBit rate mode : ConstantBit rate : 192 KbpsChannel(s) : 2 channelsChannel positions : Front: L RSampling rate : 48.0 KHzFrame rate : 31.250 fps (1536 spf)Compression mode : LossyStream size : 112 MiB (7%)Alignment : Split accross interleavesInterleave, duration : 42 ms (1.00 video frame)Interleave, preload duratio : 500 ms

Скриншоты

:--


[torrentc.info]_t_5558346.torrent
Торрент: Зарегистрирован ·  [ 2018-05-07 00:00 ] ·  593ce2e7d9c5655da7513591f3a98c591e21ab52

15 KB

Статус: проверено
Скачан: 0 раз
Размер: 1.46 GB
Оценка: 
(Голосов: 0)
Сказали спасибо: 0  Спасибо
Похожие темы
[Профиль]    [ЛС]
Показать сообщения:    
Ответить на тему

Текущее время: Сегодня 21:57

Часовой пояс: GMT + 7



Вы не можете начинать темы
Вы не можете отвечать на сообщения
Вы не можете редактировать свои сообщения
Вы не можете удалять свои сообщения
Вы не можете голосовать в опросах
Вы не можете прикреплять файлы к сообщениям
Вы можете скачивать файлы