Необузданные / The Lusty Men (Николас Рэй / Nicholas Ray) [1952, США, драма, WEB-DLRip] VO (Матвей Кенс)

Ответить на тему
Статистика раздачи [Обновить пиров]
Размер:  1.46 GB   |    Зарегистрирован:  1 месяц 14 дней   |    Скачан:  0 раз

Полного источника не было: Никогда

 
   
 
 
 
Автор Сообщение

torrentc.info

Создавать темы 06-Май-2018 16:36

[Цитировать]

Необузданные / The Lusty Men
Страна: США
Студия: Wald / Krasna Productions
Жанр: драма
Год выхода: 1952
Продолжительность: 01:52:59
Перевод: Одноголосый закадровый - [url=profile.php?mode=viewprofile&u=9655185]Матвей Кенс[/url]
Субтитры: нет
Оригинальная аудиодорожка: нет
Режиссер: Николас Рэй / Nicholas Ray
Композитор: Рой Уэбб / Roy Webb
В ролях: Сьюзен Хэйуорд / Susan Hayward ... Louise Merritt
Роберт Митчем / Robert Mitchum ... Jeff McCloud
Артур Кеннеди / Arthur Kennedy ... Wes Merritt
Артур Ханникат / Arthur Hunnicutt ... Booker Davis
Фрэнк Фэйлен / Frank Faylen ... Al Dawson
Уолтер Кой / Walter Coy ... Buster Burgess
Кэрол Наджент / Carol Nugent ... Rusty Davis
Мария Харт / Maria Hart ... Rosemary Maddox
Лорна Тэйер / Lorna Thayer ... Grace Burgess
Берт Мустин / Burt Mustin ... Jeremiah Watrus

Описание: Бывшая звезда родео Джефф МакКлауд получает тяжелую травму на выступлении и вынужден завершить карьеру. Без определенной цели, просто по зову сердца, он возвращается туда, где прошло его детство, в родной дом который он хотел однажды выкупить. Но немалые деньги, выигранные им за 18 лет в родео, растрачены. Копить, смотреть в будущее — не в его характере. Живущий по соседству ковбой Уэс Мерритт, женатый уже третий год, наслышан о его подвигах и устраивает его на ранчо, где работает сам. Уэс и его жена Луиза планируют купить собственное ранчо, но для этого им нужно копить деньги еще много лет. Уэса манят быстрые выигрыши в родео, и он просит Джеффа ввести его в этот спорт...--Фильмография Сьюзен Хэйуорд--БОЛЬШОЕ СПАСИБО:
За рип - [url=profile.php?mode=viewprofile&u=6762455]tеko[/url]
Озвучивание фильма (по русским субтитрам) - [url=profile.php?mode=viewprofile&u=9655185]Матвей Кенс[/url]
Работа со звуком - [url=profile.php?mode=viewprofile&u=8012233]AlekceyR76[/url]
Также Большое Спасибо всем, кто принял участие в появлении озвучки к этому фильму:
Магда, Lafajet, Jasenka, yanaelisa, surzhoks, Ugo927, елена 22, voostorg, sindzi, борюська, cementit, Mc-Nabbs, HippopotamusIV
--Раздача с субтитрами, с которой взято видео - http://Torrentc/forum/viewtopic.php?t=5088145--Сэмпл: http://multi-up.com/1197345
Качество видео: WEB-DLRip
Формат файла: AVI
Видео: XviD, 656x480 (1.37:1), 23.976 fps, 1643 Kbps
Аудио: AC3, 48.0 KHz, 2 ch., 192 Kbps (русский одноголосый закадровый перевод) - Матвей Кенс

MediaInfo

Общее
Полное имя : Z:\РАЗДАЧИ\The Lusty Men 1952.avi
Формат файла : AVI
Формат файла/Информация : Audio Video Interleave
Размер файла : 1,46 Гбайт
Продолжительность : 1 ч. 52 м.
Общий поток : 1844 Кбит/сек
Программа кодирования : VirtualDubMod 1.5.10.3 | www.virtualdub-fr.org || (build 2550/release)
Библиотека кодирования : VirtualDubMod build 2550/release
Видео
Идентификатор : 0
Формат файла : MPEG-4 Visual
Профиль формата : Advanced Simple@L5
Параметр BVOP формата : 1
Параметр QPel формата : Нет
Параметр GMC формата : Без точки перехода
Параметр матрицы формата : Выборочная
Идентификатор кодека : XVID
Идентификатор кодека/Подсказка : XviD
Продолжительность : 1 ч. 52 м.
Битрейт : 1643 Кбит/сек
Ширина : 656 пикселей
Высота : 480 пикселей
Соотношение сторон : 4:3
Частота кадров : 23,976 (24000/1001) кадра/сек
Частота кадров в оригинале : 23,976 (23976/1000) кадра/сек
Цветовое пространство : YUV
Субдискретизация насыщенности : 4:2:0
Битовая глубина : 8 бит
Тип развёртки : Прогрессивная
Метод сжатия : С потерями
Бит/(Пиксели*Кадры) : 0.218
Размер потока : 1,30 Гбайт (89%)
Библиотека кодирования : XviD 73
Аудио
Идентификатор : 1
Формат файла : AC-3
Формат файла/Информация : Audio Coding 3
Параметр Endianness формата : Big
Идентификатор кодека : 2000
Продолжительность : 1 ч. 52 м.
Вид битрейта : Постоянный
Битрейт : 192 Кбит/сек
Каналы : 2 канала
Расположение каналов : Front: L R
Частота : 48,0 КГц
Частота кадров : 31,250 кадров/сек (1536 spf)
Битовая глубина : 16 бит
Метод сжатия : С потерями
Размер потока : 155 Мбайт (10%)
Выравнивание : Разделение по промежуткам
Продолжительность промежутка : 42 мс. (1,00 видеокадр)
Время предзагрузки промежутка : 500 мс.
ServiceKind/String : Complete Main


[torrentc.info]_t_5558113.torrent
Торрент: Зарегистрирован ·  [ 2018-05-06 16:36 ] ·  ca070cae8a1d730a64bf3bad7df2ba424d747307

15 KB

Статус: проверено
Скачан: 0 раз
Размер: 1.46 GB
Оценка: 
(Голосов: 0)
Сказали спасибо: 0  Спасибо
Похожие темы
[Профиль]    [ЛС]
Показать сообщения:    
Ответить на тему

Текущее время: Сегодня 15:24

Часовой пояс: GMT + 7



Вы не можете начинать темы
Вы не можете отвечать на сообщения
Вы не можете редактировать свои сообщения
Вы не можете удалять свои сообщения
Вы не можете голосовать в опросах
Вы не можете прикреплять файлы к сообщениям
Вы можете скачивать файлы