Отелло / Трагедия Отелло, венецианского мавра / The Tragedy of Othello: The Moor of Venice (Орсон Уэллс / Orson Welles) [1952, США, Италия, трагедия, экранизация, HDRip] VO (Дасевич) + AVO (Медведев) + Sub Rus (imvolk-13), Eng + Original Enga

Ответить на тему
Статистика раздачи [Обновить пиров]
Размер:  1.7 GB   |    Зарегистрирован:  1 месяц 17 дней   |    Скачан:  0 раз

Полного источника не было: Никогда

Личеров:  1  [  0 KB/s  ]   Подробная статистика скачивающих
 
   
 
 
 
Автор Сообщение

torrentc.info

Создавать темы 06-Май-2018 01:14

[Цитировать]

Отелло / Трагедия Отелло, венецианского мавра / The Tragedy of Othello: The Moor of Venice

Страна: США, Италия, Франция, Марокко
Жанр: трагедия, экранизация
Год выхода: 1952
Продолжительность: 01:32:55
Перевод: Студийный (одноголосый закадровый) - Александр Дасевич по субтитрам imvolk-13
Перевод: Авторский (одноголосый закадровый) - Алексей Медведев
Субтитры: русские (imvolk-13), английские
Оригинальная аудиодорожка: английский

Режиссер: Орсон Уэллс / Orson Welles
В ролях: Майкл МакЛиаммур, Роберт Кут, Орсон Уэллс, Сюзанн Клотье, Хилтон Эдвардс, Николас Брюс, Майкл Лоуренс, Фэй Комптон, Дорис Даулинг, Абдулла Бен Мохамет
Описание: Бессмертная кинопостановка бессмертной трагедии Шекспира, в которой главную роль сыграл сам режиссер фильма Джордж Орсон Уэллс. Съемки «Отелло» продолжались 4 года из-за проблем с финансированием и Орсону, в течение этого периода, пришлось играть в чужих картинах, чтобы помочь удержать «Отелло» на плаву. Среди них были «Коварный лис Борджа» — Хенри Кинга, «Черная роза«-Хенри Хэтэуэя и «Третий человек» — Кэрола Рида. Его труды не пропали даром — фильм считается одной из лучших экранизаций Шекспира динамичной, сжатой и напряженной. Его фильм «Отелло» открывается торжественным и скорбным прологом: вдоль морского побережья, на фоне каменных крепостных стен движется похоронная процессия, реют штандарты, сверкает оружие, плывет на плечах латников гроб с телом черного полководца и, ярясь, как пойманный хищник, смотрит на посмертное торжество своего врага запертый в железную клетку Яго.
Сэмпл
Качество видео: HDRip
Формат файла: AVI
Видео: 656x480 (1.37:1), 24 fps, XviD build 73 ~2040 kbps avg, 0.27 bit/pixel
Аудио: 48 kHz, AC3 Dolby Digital, 2/0 (L,R) ch, ~192 kbps - Дасевич
отдельными файлами:
Аудио: 48 kHz, AC3 Dolby Digital, 2/0 (L,R) ch, ~192 kbps - Медведев
Аудио: 48 kHz, AC3 Dolby Digital, 2/0 (L,R) ch, ~192 kbps - оригинал
Формат файла субтитров: softsub (SRT)

Источник: Torrentc

http://Torrentc/forum/viewtopic.php?t=1886106

MediaInfo

GeneralComplete name : H:\The.Tragedy.of.Othello.1952.hdrip_[1.46]_[teko]\The.Tragedy.of.Othello.1952.hdrip_[1.46].aviFormat : AVIFormat/Info : Audio Video InterleaveFile size : 1.46 GiBDuration : 1h 32mnOverall bit rate : 2 242 KbpsWriting application : VirtualDubMod 1.5.10.3 | www.virtualdub-fr.org || (build 2550/release)Writing library : VirtualDubMod build 2550/release
VideoID : 0Format : MPEG-4 VisualFormat profile : Advanced Simple@L5Format settings, BVOP : 2Format settings, QPel : NoFormat settings, GMC : No warppointsFormat settings, Matrix : CustomCodec ID : XVIDCodec ID/Hint : XviDDuration : 1h 32mnBit rate : 2 041 KbpsWidth : 656 pixelsHeight : 480 pixelsDisplay aspect ratio : 4:3Frame rate : 24.000 fpsColor space : YUVChroma subsampling : 4:2:0Bit depth : 8 bitsScan type : ProgressiveCompression mode : LossyBits/(Pixel*Frame) : 0.270Stream size : 1.32 GiB (91%)Writing library : XviD 73
AudioID : 1Format : AC-3Format/Info : Audio Coding 3Mode extension : CM (complete main)Format settings, Endianness : BigCodec ID : 2000Duration : 1h 32mnBit rate mode : ConstantBit rate : 192 KbpsChannel(s) : 2 channelsChannel positions : Front: L RSampling rate : 48.0 KHzFrame rate : 31.250 fps (1536 spf)Compression mode : LossyStream size : 128 MiB (9%)Alignment : Split accross interleavesInterleave, duration : 42 ms (1.00 video frame)Interleave, preload duratio : 500 ms
:--


[torrentc.info]_t_5557826.torrent
Торрент: Зарегистрирован ·  [ 2018-05-06 01:14 ] ·  4cecb52b0239f882ffef14d749cd1d56f76c3bb0

18 KB

Статус: проверено
Скачан: 0 раз
Размер: 1.7 GB
Оценка: 
(Голосов: 0)
Сказали спасибо: 0  Спасибо
Похожие темы
[Профиль]    [ЛС]
Показать сообщения:    
Ответить на тему

Текущее время: Сегодня 00:22

Часовой пояс: GMT + 7



Вы не можете начинать темы
Вы не можете отвечать на сообщения
Вы не можете редактировать свои сообщения
Вы не можете удалять свои сообщения
Вы не можете голосовать в опросах
Вы не можете прикреплять файлы к сообщениям
Вы можете скачивать файлы