(Progressive Rock) [CD] The Pineapple Thief - All The Wars - 2012/2017, FLAC (image+.cue), lossless

Ответить на тему
Статистика раздачи [Обновить пиров]
Размер:  491 MB   |    Зарегистрирован:  1 месяц 15 дней   |    Скачан:  0 раз

Полного источника не было: Никогда

 
   
 
 
 
Автор Сообщение

torrentc.info

Создавать темы 05-Май-2018 23:01

[Цитировать]

The Pineapple Thief / All The Wars (Reissue)
Жанр: Progressive Rock
Носитель: CD
Год издания: 2012/2017
Издатель (лейбл): Kscope
Номер по каталогу: 609
Аудиокодек: FLAC (*.flac)
Тип рипа: image+.cue
Битрейт аудио: lossless
Продолжительность: 78:54
Источник (релизер): собственный CD
Наличие сканов в содержимом раздачи: нет
Треклист:
1. Burning Pieces [04:13]
2. Warm Seas [04:10]
3. Last Man Standing [05:12]
4. All The Wars [03:47]
5. Build A World [03:56]
6. Give It Back [07:23]
7. Someone Pull Me Out [04:12]
8. One More Step Away [03:06]
9. Reaching Out [09:46]
Bonus Tracks
10. You Don't Look So Innocent [03:55]
11. What Are You Saying [04:28]
12. Warm Seas (acoustic) [04:11]
13. All The Wars (acoustic) [03:49]
14. Last Man Standing (acoustic) [04:32]
15. Someone Pull Me Out (acoustic) [04:05]
16. Burning Pieces (acoustic) [03:12]
17. Reaching Out (acoustic) [04:50]

Лог создания рипа

Exact Audio Copy V1.3 from 2. September 2016
Exact Audio Copy V1.3 from 2. September 2016
Отчёт EAC об извлечении, выполненном 1. мая 2018, 19:11
The Pineapple Thief / All The Wars (Reissue)
Дисковод: HL-DT-STDVD+-RW GU90N Adapter: 1 ID: 0
Режим чтения : ДостоверностьИспользование точного потока : ДаОтключение кэша аудио : ДаИспользование указателей C2 : Нет
Коррекция смещения при чтении : 102Способность читать области Lead-in и Lead-out : НетЗаполнение пропущенных сэмплов тишиной : ДаУдаление блоков с тишиной в начале и конце : НетПри вычислениях CRC использовались нулевые сэмплы : ДаИнтерфейс : Встроенный Win32-интерфейс для Win NT/2000
Выходной формат : Пользовательский кодировщикВыбранный битрейт : 1024 kBit/sКачество : ВысокийДобавление ID3-тега : НетУтилита сжатия : C:\Program Files (x86)\Exact Audio Copy\FLAC\FLAC.EXEДополнительные параметры : -6 -V -T "ARTIST=%artist%" -T "TITLE=%title%" -T "ALBUM=%albumtitle%" -T "DATE=%year%" -T "TRACKNUMBER=%tracknr%" -T "GENRE=%genre%" -T "COMMENT=%comment%" -T "BAND=%albuminterpret%" -T "ALBUMARTIST=%albuminterpret%" -T "COMPOSER=%composer%" %haslyrics%--tag-from-file=LYRICS="%lyricsfile%"%haslyrics% -T "DISCNUMBER=%cdnumber%" -T "TOTALDISCS=%totalcds%" -T "TOTALTRACKS=%numtracks%" %hascover%--picture="%coverfile%"%hascover% %source% -o %dest%
TOC извлечённого CD
Трек | Старт | Длительность | Начальный сектор | Конечный сектор --------------------------------------------------------------------- 1 | 0:00.00 | 4:13.17 | 0 | 18991 2 | 4:13.17 | 4:10.13 | 18992 | 37754 3 | 8:23.30 | 5:12.39 | 37755 | 61193 4 | 13:35.69 | 3:47.20 | 61194 | 78238 5 | 17:23.14 | 3:56.31 | 78239 | 95969 6 | 21:19.45 | 7:23.02 | 95970 | 129196 7 | 28:42.47 | 4:12.05 | 129197 | 148101 8 | 32:54.52 | 3:06.48 | 148102 | 162099 9 | 36:01.25 | 9:46.51 | 162100 | 206100 10 | 45:48.01 | 3:55.02 | 206101 | 223727 11 | 49:43.03 | 4:28.11 | 223728 | 243838 12 | 54:11.14 | 4:11.72 | 243839 | 262735 13 | 58:23.11 | 3:49.51 | 262736 | 279961 14 | 62:12.62 | 4:32.55 | 279962 | 300416 15 | 66:45.42 | 4:05.65 | 300417 | 318856 16 | 70:51.32 | 3:12.51 | 318857 | 333307 17 | 74:04.08 | 4:50.14 | 333308 | 355071
Характеристики диапазона извлечения и сообщения об ошибках
Выбранный диапазон
Имя файла C:\Users\mesh33\Desktop\FLAC\The Pineapple Thief - All The Wars (Reissue).wav
Пиковый уровень 94.4 % Скорость извлечения 4.3 X Качество диапазона 100.0 % CRC теста B80A04DB CRC копии B80A04DB Копирование... OK
Ошибок не произошло
AccurateRip: сводка
Трек 1 отсутствует в базе данныхТрек 2 отсутствует в базе данныхТрек 3 отсутствует в базе данныхТрек 4 отсутствует в базе данныхТрек 5 отсутствует в базе данныхТрек 6 отсутствует в базе данныхТрек 7 отсутствует в базе данныхТрек 8 отсутствует в базе данныхТрек 9 отсутствует в базе данныхТрек 10 отсутствует в базе данныхТрек 11 отсутствует в базе данныхТрек 12 отсутствует в базе данныхТрек 13 отсутствует в базе данныхТрек 14 отсутствует в базе данныхТрек 15 отсутствует в базе данныхТрек 16 отсутствует в базе данныхТрек 17 отсутствует в базе данных
Ни одного трека нет в базе AccurateRip
Конец отчёта

Содержание индексной карты (.CUE)

REM GENRE "Progressive Rock"REM DATE 2017REM DISCID EB127E11REM COMMENT "ExactAudioCopy v1.3"PERFORMER "The Pineapple Thief"TITLE "All The Wars (Reissue)"REM COMPOSER ""FILE "The Pineapple Thief - All The Wars (Reissue).flac" WAVE TRACK 01 AUDIO TITLE " Burning Pieces " PERFORMER "The Pineapple Thief" REM COMPOSER "" INDEX 01 00:00:00 TRACK 02 AUDIO TITLE "Warm Seas" PERFORMER "The Pineapple Thief" REM COMPOSER "" INDEX 00 04:13:16 INDEX 01 04:13:17 TRACK 03 AUDIO TITLE "Last Man Standing " PERFORMER "The Pineapple Thief" REM COMPOSER "" INDEX 01 08:23:30 TRACK 04 AUDIO TITLE " All The Wars " PERFORMER "The Pineapple Thief" REM COMPOSER "" INDEX 01 13:35:69 TRACK 05 AUDIO TITLE " Build A World " PERFORMER "The Pineapple Thief" REM COMPOSER "" INDEX 01 17:23:14 TRACK 06 AUDIO TITLE "Give It Back" PERFORMER "The Pineapple Thief" REM COMPOSER "" INDEX 01 21:19:45 TRACK 07 AUDIO TITLE "Someone Pull Me Out" PERFORMER "The Pineapple Thief" REM COMPOSER "" INDEX 01 28:42:47 TRACK 08 AUDIO TITLE "One More Step Away" PERFORMER "The Pineapple Thief" REM COMPOSER "" INDEX 01 32:54:52 TRACK 09 AUDIO TITLE " Reaching Out " PERFORMER "The Pineapple Thief" REM COMPOSER "" INDEX 01 36:01:25 TRACK 10 AUDIO TITLE "You Don't Look So Innocent" PERFORMER "The Pineapple Thief" REM COMPOSER "" INDEX 00 45:47:73 INDEX 01 45:48:01 TRACK 11 AUDIO TITLE "What Are You Saying" PERFORMER "The Pineapple Thief" REM COMPOSER "" INDEX 01 49:43:03 TRACK 12 AUDIO TITLE "Warm Seas (acoustic)" PERFORMER "The Pineapple Thief" REM COMPOSER "" INDEX 01 54:11:14 TRACK 13 AUDIO TITLE "All The Wars (acoustic)" PERFORMER "The Pineapple Thief" REM COMPOSER "" INDEX 01 58:23:11 TRACK 14 AUDIO TITLE "Last Man Standing (acoustic)" PERFORMER "The Pineapple Thief" REM COMPOSER "" INDEX 01 62:12:62 TRACK 15 AUDIO TITLE "Someone Pull Me Out (acoustic)" PERFORMER "The Pineapple Thief" REM COMPOSER "" INDEX 01 66:45:42 TRACK 16 AUDIO TITLE " Burning Pieces (acoustic)" PERFORMER "The Pineapple Thief" REM COMPOSER "" INDEX 01 70:51:32 TRACK 17 AUDIO TITLE "Reaching Out (acoustic)" PERFORMER "The Pineapple Thief" REM COMPOSER "" INDEX 01 74:04:08
Доп. информация: New dynamic 2017 master by Steve Kitch at Audiomaster.
Features 8 bonus tracks, including acoustic version featuring the Plague Philharmonic Orchestra.


[torrentc.info]_t_5555965.torrent
Торрент: Зарегистрирован ·  [ 2018-05-05 22:57 ] ·  446abd6b27bc1cb9ba6c9ea4de6cd1396043e344

20 KB

Статус: проверено
Скачан: 0 раз
Размер: 491 MB
Оценка: 
(Голосов: 0)
Сказали спасибо: 0  Спасибо
Похожие темы
[Профиль]    [ЛС]
Показать сообщения:    
Ответить на тему

Текущее время: Сегодня 15:08

Часовой пояс: GMT + 7



Вы не можете начинать темы
Вы не можете отвечать на сообщения
Вы не можете редактировать свои сообщения
Вы не можете удалять свои сообщения
Вы не можете голосовать в опросах
Вы не можете прикреплять файлы к сообщениям
Вы можете скачивать файлы